Идите нах*й: История Уве Болла / F*** You All: The Uwe Boll Story (2018) WEB-DLRip

Reply to topic
 
Author Message

BezReklamy ®

Gender: Male

Longevity: 9 months 11 days

Posts: 7

Post 27-Aug-2019 07:54

[Quote]

Идите нах*й: История Уве Болла / F*** You All: The Uwe Boll Story Год выпуска: 2018
Жанр: Документальный, биография, история
Выпущено: Канада, США, Prairie Coast Films
Режиссер: Шон Патрик Шол
В ролях: Наталия Тудж, Уве Болл, Дэн Кларк, Кит Дэвид, Брендан Флетчер, Линдсэй Холлистер, Клинт Ховард, Брайан С. Найт
О фильме: Фильм посвящен жизни и карьере Уве Болла, состоит из интервью с теми, кому довелось работать с ним и кого затронула его карьера. У́ве Болл (нем. Uwe Boll; род. 22 июня 1965, Вермельскирхен, Северный Рейн-Вестфалия, Германия) — немецкий кинорежиссёр, в основном известный своими экранизациями компьютерных игр.
Качество: WEB-DLRip
Видео: XviD, 1808 Кбит/с, 720x320, 24 кадр/с
Аудио: AC3, 2 ch, 192 Кбит/с
Продолжительность: 01:37:29
Перевод / Озвучка: Профессиональный [многоголосый] СВ Студия
Cубтитры: нет

Скриншоты


MediaInfo

Video
ID : 0
Format : MPEG-4 Visual
Format profile : Advanced Simple@L5
Format settings, BVOP : 1
Format settings, QPel : No
Format settings, GMC : No warppoints
Format settings, Matrix : Custom
Codec ID : XVID
Codec ID/Hint : XviD
Duration : 1h 37mn
Bit rate : 1 808 Kbps
Width : 720 pixels
Height : 320 pixels
Display aspect ratio : 2.25:1
Frame rate : 25.000 fps
Color space : YUV
Chroma subsampling : 4:2:0
Bit depth : 8 bits
Scan type : Progressive
Compression mode : Lossy
Bits/(Pixel*Frame) : 0.314
Stream size : 1.23 GiB (90%)
Writing library : XviD 73
Audio
ID : 1
Format : AC-3
Format/Info : Audio Coding 3
Mode extension : CM (complete main)
Format settings, Endianness : Big
Codec ID : 2000
Duration : 1h 37mn
Bit rate mode : Constant
Bit rate : 192 Kbps
Channel(s) : 2 channels
Channel positions : Front: L R
Sampling rate : 48.0 KHz
Bit depth : 16 bits
Compression mode : Lossy
Stream size : 134 MiB (10%)
Alignment : Split accross interleaves
Interleave, duration : 40 ms (1.00 video frame)
Interleave, preload duration : 500 ms
Релиз от: BezReklamy
[Profile] [PM]
Display posts:    
Reply to topic

Current time is: 04-Jun 02:04

All times are UTC + 3



You cannot post new topics in this forum
You cannot reply to topics in this forum
You cannot edit your posts in this forum
You cannot delete your posts in this forum
You cannot vote in polls in this forum
You cannot attach files in this forum
You cannot download files in this forum