Криминальный город / Beomjoi dosi (The Outlaws) (2017) HDRip

Reply to topic
 
Author Message

Monk ®

Gender: Male

Longevity: 11 months 27 days

Posts: 9115

Location: Казань

Post 02-Dec-2018 13:34

[Quote]

Криминальный город / Beomjoi dosi (The Outlaws) Год выпуска: 2017
Жанр: Боевик, криминал, триллер
Выпущено: Корея Южная, BA Entertainment, Hong Film
Режиссер: Юн Сон Кан
В ролях: Дон Сок Ма, Кё Сан Юн, Чжэ Юн Чо, Гви Хва Чхве, Чжи Хван Пак, Ки Чжун Хон, Ха Чжун Сон, Дон Вон Хо, Сон Гю Чжин, Хён Чжун Им, Сон Тэ Хо, Ин Ги Чон, Чжин Ун Чо, Чжи Сон Ом
О фильме: В 2004 году в китайском квартале Сеула, печально известном высоким уровнем преступности, объявляются 3 особо борзых мигранта-коллектора и вместо того, чтобы по старинке изымать деньги у должников, сразу убивают главу одной из преступных группировок. Свято место пусто не бывает, и вот уже предводитель троицы Цзян Чэнь руководит этой бандой и пытается отжать бизнес у конкурентов. Местный начальник следственно-оперативной группы Ма Сок-до привык поддерживать худой мир на подконтрольной территории, но Цзян Чэнь мирно жить не хочет.

Качество: HDRip
Видео: XviD, 1333 Кбит/с, 720x304
Аудио: Русский (АС3, 2 ch, 192 Кбит/с), корейский (АС3, 6 ch, 448 Кбит/с)
Продолжительность: 02:01:07
Перевод: Любительский многоголосый [GreenРай Studio], любительский двухголосый [КОЛОБОК]
Субтитры: Русские, английские

Скриншоты



MediaInfo

Общее
Полное имя : C:\Kriminalnyj.gorod.2017.HDRip\Kriminalnyj.gorod.2017.HDRip.avi
Формат : AVI
Формат/Информация : Audio Video Interleave
Размер файла : 1,46 Гбайт
Продолжительность : 2 ч. 1 м.
Общий поток : 1731 Кбит/сек
Название фильма : Криминальный город / Beomjoi dosi / The Outlaws / 2017 (2017) HDRip
Режиссёр : Кан Юн-сон / Kang Yoon-seong
Жанр : Боевик, криминал, триллер
Программа кодирования : VirtualDubMod 1.5.10.2 (build 2542/release)
Формат оригинала/Имя : Художественный фильм
Авторское право : BA Entertainment, Hong Film
Примечание : vitolinform
Видео
Идентификатор : 0
Формат : MPEG-4 Visual
Профиль формата : Advanced Simple@L5
Настройки формата : BVOP2
Параметр BVOP формата : 2
Параметр QPel формата : Нет
Параметр GMC формата : Без точки перехода
Параметр матрицы формата : Default (MPEG)
Идентификатор кодека : XVID
Идентификатор кодека/Подсказка : XviD
Продолжительность : 2 ч. 1 м.
Битрейт : 1333 Кбит/сек
Ширина : 720 пикселей
Высота : 304 пикселя
Соотношение сторон : 2,35:1
Частота кадров : 23,976 (24000/1001) кадра/сек
Цветовое пространство : YUV
Субдискретизация насыщенности : 4:2:0
Битовая глубина : 8 бит
Тип развёртки : Прогрессивная
Метод сжатия : С потерями
Бит/(Пиксели*Кадры) : 0.254
Размер потока : 1,13 Гбайт (77%)
Библиотека кодирования : XviD 67
Аудио #1
Идентификатор : 1
Формат : AC-3
Формат/Информация : Audio Coding 3
Идентификатор кодека : 2000
Продолжительность : 2 ч. 1 м.
Вид битрейта : Постоянный
Битрейт : 192 Кбит/сек
Каналы : 2 канала
Расположение каналов : Front: L R
Частота : 48,0 КГц
Частота кадров : 31,250 кадров/сек (1536 SPF)
Битовая глубина : 16 бит
Метод сжатия : С потерями
Размер потока : 166 Мбайт (11%)
Выравнивание : Разделение по промежуткам
Продолжительность промежутка : 42 мс. (1,00 видеокадр)
Время предзагрузки промежутка : 500 мс.
Заголовок : Russian (MVO GreenРай Studio)
ServiceKind/String : Complete Main
Аудио #2
Идентификатор : 2
Формат : AC-3
Формат/Информация : Audio Coding 3
Идентификатор кодека : 2000
Продолжительность : 2 ч. 1 м.
Вид битрейта : Постоянный
Битрейт : 192 Кбит/сек
Каналы : 2 канала
Расположение каналов : Front: L R
Частота : 48,0 КГц
Частота кадров : 31,250 кадров/сек (1536 SPF)
Битовая глубина : 16 бит
Метод сжатия : С потерями
Размер потока : 166 Мбайт (11%)
Выравнивание : Разделение по промежуткам
Продолжительность промежутка : 42 мс. (1,00 видеокадр)
Время предзагрузки промежутка : 500 мс.
Заголовок : Russian (MVO Колбок)
ServiceKind/String : Complete Main
[Profile] [PM]
Display posts:    
Reply to topic

Current time is: 12-Nov 00:05

All times are UTC + 3



You cannot post new topics in this forum
You cannot reply to topics in this forum
You cannot edit your posts in this forum
You cannot delete your posts in this forum
You cannot vote in polls in this forum
You cannot attach files in this forum
You cannot download files in this forum