Внутренний огонь (2020) WEB-DLRip | iTunes

Reply to topic
 
Author Message

Monk ®

Gender: Male

Longevity: 1 year 7 months

Posts: 12422

Location: Казань

Post 27-May-2020 02:32

[Quote]

Внутренний огонь Год выпуска: 2020
Жанр: Комедия, ужасы
Выпущено: Россия, Tarlo film
Режиссер: Михаил Марескин
В ролях: Андрей Папанин, Михаил Павлик, Софья Синицына, Дмитрий "Хаски" Кузнецов, Яков Шамшин, Евгений Тарло
О фильме: В роскошной петербургской квартире бывшего наркобарона встречаются четыре незнакомца. Хозяин дома опаздывает, и четверым гостям ничего не остается, кроме как сидеть и разговаривать. Один из них пришел просить денег, другой - оружие, третий - с целью шантажа, а четвертый – чтобы убить третьего. Слово за слово, и то, что сначала начиналось как безобидный разговор между ожидающими незнакомцами, превращается в шквал насмешек и оскорблений в адрес самого слабого из них. Ситуация обостряется настолько, что грозит кровавой расправой, а затем ... мистическим столкновением с неизбежным.
Качество: WEB-DLRip
Видео: XviD, 1763 Кбит/с, 720x304
Аудио: Русский (AC3, 6 ch, 384 Кбит/с)
Продолжительность: 01:36:44
Перевод: Не требуется [iTunes]

Скриншоты


MediaInfo

Complete name : Vnutrenniy.ogon.2020.WEB-DL.1080p.ELEKTRI4KA.UNIONGANG.mkv
Format : Matroska
Format version : Version 4 / Version 2
File size : 3.36 GiB
Duration : 1 h 36 min
Overall bit rate : 4 980 kb/s
Encoded date : UTC 2020-05-24 20:29:05
Writing application : mkvmerge v8.3.0 ('Over the Horizon') 64bit
Writing library : libebml v1.3.1 + libmatroska v1.4.2
Video
ID : 1
Format : AVC
Format/Info : Advanced Video Codec
Format profile : High@L4
Format settings, CABAC : Yes
Format settings, Reference frames : 5 frames
Codec ID : V_MPEG4/ISO/AVC
Duration : 1 h 36 min
Bit rate : 4 594 kb/s
Width : 1 920 pixels
Height : 804 pixels
Display aspect ratio : 2.40:1
Frame rate mode : Constant
Frame rate : 25.000 FPS
Color space : YUV
Chroma subsampling : 4:2:0
Bit depth : 8 bits
Scan type : Progressive
Bits/(Pixel*Frame) : 0.119
Stream size : 3.10 GiB (92%)
Title : .ELEKTRI4KA.UNIONGANG.
Language : English
Default : Yes
Forced : No
Color range : Limited
Color primaries : BT.709
Transfer characteristics : BT.709
Matrix coefficients : BT.709
Audio
ID : 2
Format : AC-3
Format/Info : Audio Coding 3
Mode extension : CM (complete main)
Format settings, Endianness : Big
Codec ID : A_AC3
Duration : 1 h 36 min
Bit rate mode : Constant
Bit rate : 384 kb/s
Channel(s) : 6 channels
Channel positions : Front: L C R, Side: L R, LFE
Sampling rate : 48.0 kHz
Frame rate : 31.250 FPS (1536 spf)
Bit depth : 16 bits
Compression mode : Lossy
Stream size : 266 MiB (8%)
Title : iTunes
Language : Russian
Default : Yes
Forced : No
Menu
00:00:00.000 : Глава 1
00:04:29.920 : Глава 2
00:10:09.200 : Глава 3
00:16:23.280 : Глава 4
00:26:46.520 : Глава 5
00:32:03.000 : Глава 6
00:38:24.520 : Глава 7
00:46:10.160 : Глава 8
00:55:11.520 : Глава 9
01:03:44.640 : Глава 10
01:08:37.080 : Глава 11
01:19:07.800 : Глава 12
01:26:37.120 : Глава 13
[Profile] [PM]
Display posts:    
Reply to topic

Current time is: 10-Jul 06:46

All times are UTC + 3



You cannot post new topics in this forum
You cannot reply to topics in this forum
You cannot edit your posts in this forum
You cannot delete your posts in this forum
You cannot vote in polls in this forum
You cannot attach files in this forum
You cannot download files in this forum