Discovery. Смертельный улов: Бухта дьявола / Deadliest Catch: Dungeon Cove [1-7 серии из 7] (2016) HDTVRip 720p

Reply to topic
 
Author Message

Starik60 ®

Gender: Male

Longevity: 9 months 10 days

Posts: 148

Location: Москва, Россия

Post 23-Dec-2018 13:00

[Quote]

Смертельный улов: Бухта дьявола / Deadliest Catch: Dungeon Cove Год выпуска: 2016
Жанр: Документальный, приключения, реалити-шоу
Выпущено: США, Discovery Channel HD
В ролях: Майк Роу, Гэри Рипка, Мики Ретэрфорд младший
О фильме: Ньюпорт в штате Орегон – один из последних рыболовецких городов, расположенных вдоль особо трудного для навигации района моря от Орегона до Британской Колумбии, который называют «Кладбищем Тихого океана». Рыболовный промысел в этих водах, унесших тысячи людских жизней и потопивших множество кораблей, считается самым опасным в мире. Хотя море у орегонского побережья и изобилует рыбой и другими морскими обитателями, лабиринты отмелей и коварных течений снискали ему дурную славу. Но, несмотря на смертельный риск, многие поколения местных жителей зарабатывают на жизнь ловлей дандженесского краба. Мы увидим, как живут и работают эти отважные краболовы, а также узнаем, что чувствуют их родные, когда корабли уходят в очередной рейд, а им остаётся ждать их возвращения. Каждый год рыбаки гибнут в этих непредсказуемых водах, но жители Ньюпорта готовы переносить все трудности ради сохранения традиций своего города.

Качество: HDTVRip 720p
Видео: MPEG-4 AVC, ~ 4000 Кбит/с, 1280x720
Аудио: MP2, 2 ch, 192 Кбит/с
Продолжительность: 7 x ~ 00:44:00
Перевод: Профессиональный (двухголосый, закадровый)
Cубтитры: нет

Скриншоты



MediaInfo

General
Unique ID : 322444421983810884729760696236568654983 (0xF2948969C0FBA174C496E98050EAB487)
Complete name : D:\Раздачи\Смертельный улов Бухта дьявола 720p HitWay\01 Смертельный улов Бухта дьявола HitWay.mkv
Format : Matroska
Format version : Version 2
File size : 1.29 GiB
Duration : 44 min 5 s
Overall bit rate mode : Constant
Overall bit rate : 4 196 kb/s
Writing application : Lavf54.63.104
Writing library : Lavf54.63.104
Video
ID : 1
Format : AVC
Format/Info : Advanced Video Codec
Format profile : High@L4.1
Format settings : CABAC / 3 Ref Frames
Format settings, CABAC : Yes
Format settings, ReFrames : 3 frames
Codec ID : V_MPEG4/ISO/AVC
Duration : 44 min 5 s
Bit rate mode : Constant
Bit rate : 4 000 kb/s
Width : 1 280 pixels
Height : 720 pixels
Display aspect ratio : 16:9
Frame rate mode : Constant
Frame rate : 30.000 FPS
Standard : NTSC
Color space : YUV
Chroma subsampling : 4:2:0
Bit depth : 8 bits
Scan type : Progressive
Bits/(Pixel*Frame) : 0.145
Stream size : 1.21 GiB (93%)
Default : No
Forced : No
Color range : Limited
Color primaries : BT.709
Transfer characteristics : BT.709
Matrix coefficients : BT.709
Audio
ID : 2
Format : MPEG Audio
Format version : Version 1
Format profile : Layer 2
Codec ID : A_MPEG/L2
Codec ID/Hint : MP2
Duration : 44 min 5 s
Bit rate mode : Constant
Bit rate : 192 kb/s
Channel(s) : 2 channels
Sampling rate : 48.0 kHz
Compression mode : Lossy
Delay relative to video : 14 ms
Stream size : 60.6 MiB (5%)
Language : English
Default : Yes
Forced : No

Название серий

01. Жертвоприношение.
02. Тихоокеанская ярость.
03. Потерянный в море.
04. Проклятый залив.
05. Еще одна потеря.
06. Последнее испытание.
07. Жертвоприношение. (Спецвыпуск.)
Благодарю за отличный постер ValkiriaGF
Релиз от:
[Profile] [PM]
Display posts:    
Reply to topic

Current time is: 22-Aug 22:03

All times are UTC + 3



You cannot post new topics in this forum
You cannot reply to topics in this forum
You cannot edit your posts in this forum
You cannot delete your posts in this forum
You cannot vote in polls in this forum
You cannot attach files in this forum
You cannot download files in this forum