Образ художника [1-6 серии из 6] (2018) WEBRip-AVC от Files-x

Reply to topic
 
Author Message

Nicodem ®

Gender: Male

Longevity: 5 months 8 days

Posts: 178

Post 06-Jan-2019 18:28

[Quote]

Образ художника
Год выпуска: 2018
Жанр: Документальный
Выпущено: Россия, ООО "CINEFOG"
Режиссер: Иван Качалин, Денис Колонтай, Дмитрий Глазовский
В ролях: Иван Качалин, Денис Колонтай, Вилен Бабичев, Василий Малофеев, Михаил Смирнов (VI), Йван Добрич
О фильме: Фильм-эксперимент по составлению образа известных художников-новаторов, основываясь только на впечатлениях от их картин. Что говорят простому зрителю сложные, малопонятные работы о самом авторе? Как часто, оказываясь в галерее с не академической живописью, мы недоумеваем – что хотел сказать художник, и что вообще творилось в его голове? Пять человек по очереди выбирают карточки с разными картинами и делятся своими первыми впечатлениями. Объектом совсем не профессионального, вольного и нередко ироничного анализа становятся картины советского режиссера и художника Сергея Параджанова, немецкого экспрессиониста Эрнста Людвига Кирхнера, французского постимпрессиониста Поля Сезанна, авангардистов Любови Поповой и Павла Филонова. Не зная имен, гости проекта без прикрас и без пиетета пытаются составить «психологический портрет» великих мастеров.
Качество: WEBRip-AVC
Видео: MPEG-4 AVC, ~ 1600 Кбит/с, 1024x576, 25 кадр/с
Аудио: AC3, 2 ch, 192 Кбит/с
Продолжительность: 6 x ~ 00:19:00
Перевод: Не требуется
Cубтитры: нет

Скриншоты



MediaInfo

General
Unique ID : 246988483925290862615915061051987497849 (0xB9D0407022B1B999B8C79339E17E9379)
Complete name : C:\Users\DOM\Desktop\ВИДЕО\Образ художника.(2018).WEBRip.(AVC).by.Серый1779.Files-x\01.Образ художника.(2018).WEBRip.(AVC).by.Серый1779.Files-x.mkv
Format : Matroska
File size : 220 MiB
Duration : 17mn 7s
Overall bit rate : 1 793 Kbps
Encoded date : UTC 2019-01-04 08:21:46
Writing application : mkvmerge v7.8.0 ('River Man') 32bit built on Apr 3 2015 12:11:22
Writing library : libebml v1.3.1 + libmatroska v1.4.2
Video
ID : 1
Format : AVC
Format/Info : Advanced Video Codec
Format profile : High@L4.1
Format settings, CABAC : Yes
Format settings, ReFrames : 9 frames
Codec ID : V_MPEG4/ISO/AVC
Duration : 17mn 7s
Bit rate : 1 600 Kbps
Width : 1 024 pixels
Height : 576 pixels
Display aspect ratio : 16:9
Frame rate : 25.000 fps
Color space : YUV
Chroma subsampling : 4:2:0
Bit depth : 8 bits
Scan type : Progressive
Bits/(Pixel*Frame) : 0.109
Stream size : 192 MiB (87%)
Writing library : x264 core 146 r2538 121396c
Encoding settings : cabac=1 / ref=9 / deblock=1:-2:-1 / analyse=0x3:0x133 / me=umh / subme=9 / psy=1 / psy_rd=1.00:0.15 / mixed_ref=1 / me_range=32 / chroma_me=1 / trellis=2 / 8x8dct=1 / cqm=0 / deadzone=21,11 / fast_pskip=0 / chroma_qp_offset=-3 / threads=18 / lookahead_threads=3 / sliced_threads=0 / nr=0 / decimate=1 / interlaced=0 / bluray_compat=0 / constrained_intra=0 / bframes=9 / b_pyramid=2 / b_adapt=2 / b_bias=0 / direct=1 / weightb=1 / open_gop=0 / weightp=2 / keyint=250 / keyint_min=25 / scenecut=40 / intra_refresh=0 / rc=2pass / mbtree=0 / bitrate=1600 / ratetol=1.0 / qcomp=0.60 / qpmin=0 / qpmax=69 / qpstep=4 / cplxblur=20.0 / qblur=0.5 / ip_ratio=1.40 / pb_ratio=1.30 / aq=2:1.00
Color primaries : BT.709-5, BT.1361, IEC 61966-2-4, SMPTE RP177
Transfer characteristics : BT.709-5, BT.1361
Matrix coefficients : BT.709-5, BT.1361, IEC 61966-2-4 709, SMPTE RP177
Audio
ID : 2
Format : AC-3
Format/Info : Audio Coding 3
Mode extension : CM (complete main)
Codec ID : A_AC3
Duration : 17mn 7s
Bit rate mode : Constant
Bit rate : 192 Kbps
Channel(s) : 2 channels
Channel positions : Front: L R
Sampling rate : 48.0 KHz
Bit depth : 16 bits
Compression mode : Lossy
Stream size : 23.5 MiB (11%)

Раздача ведётся путём добавления новых серий

Внимание! Раздача ведётся путём добавления новых серий; при каждом добавлении создаётся новый торрент.
Чтобы начать докачку новой серии, пользователям необходимо сделать следующее:
1. Остановить скачивание;
2. Удалить старый торрент у себя из клиента (старые серии удалять не надо);
3. Скачать новый торрент и запустить его у себя в клиенте вместо старого, при этом указать клиенту путь в старую папку куда и должно происходить скачивание новых серий. Ваш клиент при этом должен произвести хеширование (проверку) старой папки и будет докачивать только те серии, которых у вас ещё нет. Старые серии при этом не удаляются, а продолжают раздаваться! Eсли вы уже удалили старые серии, то предотвратить повторную закачку старых серий можно, отжав галочку в соответствующих местах при запуске нового торрента.
Релиз от:
[Profile] [PM]
Display posts:    
Reply to topic

Current time is: 25-Apr 17:47

All times are UTC + 3



You cannot post new topics in this forum
You cannot reply to topics in this forum
You cannot edit your posts in this forum
You cannot delete your posts in this forum
You cannot vote in polls in this forum
You cannot attach files in this forum
You cannot download files in this forum