Константин: Город демонов / Constantine: City of Demons (2018) BDRip 1080p

Reply to topic
 
Author Message

Monk ®

Gender: Male

Longevity: 9 months 10 days

Posts: 7980

Location: Казань

Post 20-Nov-2018 17:57

[Quote]

Константин: Город демонов / Constantine: City of Demons Год выпуска: 2018
Жанр: Мультфильм, драма, ужасы, полнометражный
Выпущено: США, DC Entertainment
Режиссер: Даг Мерфи
В ролях: Мэтт Райан, Дэмиан О’Хейр, Лора Бэйли, Эмили О’Брайэн, Робин Аткин Даунс, Рэйчел Кимси, Джим Мескимен, Кевин Майкл Ричардсон, Рик Д. Вассерман
О фильме: Жизнь экзорциста Джона Константина может закончится в любой момент. Его убивает не только пагубная привычка выкуривать по десятку сигарет в день, но и утомительная работа, ведь изгонять демонов из человеческого мира — дело непростое. Каждое новое столкновение с силами зла заставляет Джона вступать в схватку, где победу способны принести не только острый ум и знание врага, но и любимый дробовик.

Качество: BDRip 1080p
Видео: MPEG-4 AVC, 12000 Кбит/с, 1920x1080, 24.976 кадр/с
Аудио: Русский (AC3, 2 ch, 192 Кбит/с), английский (DTS, 6 ch, 1509 Кбит/с)
Продолжительность: 01:30:09
Перевод: Любительский многоголосый [ColdFilm]
Субтитры: Английские

Скриншоты



MediaInfo

eneral
Unique ID : 189312645250976808695332383698867348083 (0x8E6C4A0B3D5105B19B5AAF1C459A6273)
Complete name : F:\Фильмы\Боевики\Constantine.City.of.Demons.The.Movie.2018.1080p.BluRay.x264.DTS-FGT\Constantine.City.of.Demons.The.Movie.2018.1080p.BluRay.x264.mkv
Format : Matroska
Format version : Version 4 / Version 2
File size : 7.19 GiB
Duration : 1 h 30 min
Overall bit rate : 11.4 Mb/s
Movie name : Constantine.City.of.Demons.The.Movie.2018.1080p.BluRay.x264.DTS-FGT
Encoded date : UTC 2018-10-17 16:52:15
Writing application : mkvmerge v9.6.0 ('Slave To Your Mind') 32bit
Writing library : libebml v1.3.4 + libmatroska v1.4.5
Attachments : MV5BMTY3MTFmM2MtZGE3OC00MzY1LWE0MmItNTQxNGMzNmY2OGRjXkEyXkFqcGdeQXVyNTAyODkwOQ@@._V1_UY268_CR3,0,182,268_AL_.jpg
Video
ID : 1
Format : AVC
Format/Info : Advanced Video Codec
Format profile : High@L4.1
Format settings, CABAC : Yes
Format settings, ReFrames : 4 frames
Codec ID : V_MPEG4/ISO/AVC
Duration : 1 h 30 min
Bit rate : 9 714 kb/s
Width : 1 920 pixels
Height : 1 080 pixels
Display aspect ratio : 16:9
Frame rate mode : Constant
Frame rate : 23.976 (24000/1001) FPS
Color space : YUV
Chroma subsampling : 4:2:0
Bit depth : 8 bits
Scan type : Progressive
Bits/(Pixel*Frame) : 0.195
Stream size : 6.12 GiB (85%)
Title : Constantine.City.of.Demons.The.Movie.2018.1080p.BluRay.x264.DTS-FGT
Writing library : x264 core 148 r2795M aaa9aa8
Encoding settings : cabac=1 / ref=4 / deblock=1:1:1 / analyse=0x3:0x113 / me=umh / subme=8 / psy=1 / psy_rd=0.50:0.00 / mixed_ref=1 / me_range=32 / chroma_me=1 / trellis=2 / 8x8dct=1 / cqm=0 / deadzone=21,11 / fast_pskip=1 / chroma_qp_offset=-2 / threads=34 / lookahead_threads=3 / sliced_threads=0 / nr=0 / decimate=1 / interlaced=0 / bluray_compat=0 / constrained_intra=0 / bframes=3 / b_pyramid=2 / b_adapt=2 / b_bias=0 / direct=3 / weightb=1 / open_gop=0 / weightp=2 / keyint=240 / keyint_min=24 / scenecut=40 / intra_refresh=0 / rc_lookahead=50 / rc=crf / mbtree=1 / crf=16.0 / qcomp=0.60 / qpmin=0 / qpmax=69 / qpstep=4 / ip_ratio=1.40 / aq=3:0.60
Language : English
Default : Yes
Forced : No
Audio #1
ID : 2
Format : AC-3
Format/Info : Audio Coding 3
Format settings, Endianness : Big
Codec ID : A_AC3
Duration : 1 h 30 min
Bit rate mode : Constant
Bit rate : 192 kb/s
Channel(s) : 2 channels
Channel positions : Front: L R
Sampling rate : 48.0 kHz
Frame rate : 31.250 FPS (1536 spf)
Bit depth : 16 bits
Compression mode : Lossy
Stream size : 124 MiB (2%)
Title : ColdFilm
Language : Russian
Service kind : Complete Main
Default : Yes
Forced : No
Audio #2
ID : 3
Format : DTS
Format/Info : Digital Theater Systems
Mode : 16
Format settings, Endianness : Big
Codec ID : A_DTS
Duration : 1 h 30 min
Bit rate mode : Constant
Bit rate : 1 509 kb/s
Channel(s) : 6 channels
Channel positions : Front: L C R, Side: L R, LFE
Sampling rate : 48.0 kHz
Frame rate : 93.750 FPS (512 spf)
Bit depth : 24 bits
Compression mode : Lossy
Stream size : 973 MiB (13%)
Language : English
Default : No
Forced : No
Text
ID : 4
Format : UTF-8
Codec ID : S_TEXT/UTF8
Codec ID/Info : UTF-8 Plain Text
Duration : 1 h 26 min
Bit rate : 51 b/s
Count of elements : 1157
Stream size : 32.7 KiB (0%)
Language : English
Default : No
Forced : No
Menu
00:00:00.000 : en:Chapter 01
00:14:02.716 : en:Chapter 02
00:24:02.566 : en:Chapter 03
00:34:51.422 : en:Chapter 04
00:48:08.844 : en:Chapter 05
00:55:09.889 : en:Chapter 06
01:03:57.375 : en:Chapter 07
01:10:39.109 : en:Chapter 08
01:22:02.876 : en:Chapter 09
01:27:28.701 : en:Chapter 10
[Profile] [PM]
Display posts:    
Reply to topic

Current time is: 24-Aug 15:39

All times are UTC + 3



You cannot post new topics in this forum
You cannot reply to topics in this forum
You cannot edit your posts in this forum
You cannot delete your posts in this forum
You cannot vote in polls in this forum
You cannot attach files in this forum
You cannot download files in this forum