Маленькая Италия / Little Italy (2018) BDRip 720p | iTunes

Reply to topic
 
Author Message

Monk ®

Gender: Male

Longevity: 1 year 3 months

Posts: 10521

Location: Казань

Post 21-Nov-2018 10:33

[Quote]

Маленькая Италия / Little Italy Год выпуска: 2018
Жанр: Мелодрама, комедия
Выпущено: Канада, США, Firsttake Entertainment
Режиссер: Дональд Питри
В ролях: Хейден Кристенсен, Эмма Робертс, Алисса Милано, Дэнни Айелло, Андреа Мартин, Джейн Сеймур, Гэри Басараба, Адам Феррара, Эндрю Фунг, Васант Саранга
О фильме: Золотые мечты и надежды лелеют многие переселенцы, стремящиеся обрести красивую жизнь на американских просторах. Семейство Лео из мелодраматической ленты «Маленькая Италия», перебирается на Манхэттен из Италии, питая огромные надежды на осуществление знаменитой американской мечты, столь разрекламированной в мире. Почти одновременно с ними, родители Никки, решаются на рискованный шаг, отправляясь в небольшой итальянский район Нью-Йорка. Там бывшие итальянские подданные желают открыть собственную пиццерию и грести деньги лопатами, едва сойдя с морского лайнера. Оба семейства, преодолевая трудности, достигают желаемого, они открывают свои закусочные заведения, обзаводятся постоянными клиентами, особенно среди вечно занятых деловых людей в строгих костюмах, но с итальянской душой и корнями. Предлагаемое разнообразие пиццы привлекает многих любителей быстрой дешевой еды, порождая между заведениями ожесточенность конкуренции. Постепенно темперамент таких отношений начинает выходить за рамки дозволенности, главы семейств уже чувствуют себя на «военном полигоне» посреди маленького квартала. Постоянные перепалки перерастают в не шуточные драки с привлечением полисменов. Однако такая критическая обстановка не мешает детям из конкурирующих семейств, проникнуться настоящими чувствами. Никки и Лео влюбляются и не собираются расставаться, не смотря на воинствующих родных, которые не одобрят этой связи. На первое время ребята решают поиграть в шпионов, выбираясь тайком из дома на свидание, назначаемое обычно за три квартала от дома. Со временем чувства крепнут вместе с уверенностью, что родители никуда не денутся, когда дети объявят им о помолвке и предстоящем торжестве.

Качество: BDRip 720p
Видео: MPEG-4 AVC, 5500 Кбит/с, 1280x536
Аудио: Русский (AC3, 6 ch, 384 Кбит/с), английский (DTS, 6 ch, 1509 Кбит/с)
Продолжительность: 01:41:29
Перевод: Дублированный [iTunes]
Субтитры: Английские

Скриншоты


MediaInfo

Общее
Уникальный идентификатор : 213138979691876223684093493478397343728 (0xA059130752658020AF225342D14077F0)
Полное имя : Little.Italy.2018.D.BDRip.720p.ELEKTRI4KA.UNIONGANG.mkv
Формат : Matroska
Версия формата : Version 4
Размер файла : 5,29 Гбайт
Продолжительность : 1 ч. 41 м.
Общий поток : 7458 Кбит/сек
Дата кодирования : UTC 2019-12-24 09:07:24
Программа кодирования : mkvmerge v38.0.0 ('The Silent Type') 64-bit
Библиотека кодирования : libebml v1.3.9 + libmatroska v1.5.2
Видео
Идентификатор : 1
Формат : AVC
Формат/Информация : Advanced Video Codec
Профиль формата : High@L4.1
Настройки формата : CABAC / 12 Ref Frames
Параметр CABAC формата : Да
Параметр RefFrames формата : 12 кадров
Идентификатор кодека : V_MPEG4/ISO/AVC
Продолжительность : 1 ч. 41 м.
Битрейт : 5500 Кбит/сек
Ширина : 1280 пикселей
Высота : 536 пикселей
Соотношение сторон : 2,40:1
Режим частоты кадров : Постоянный
Частота кадров : 23,976 (24000/1001) кадра/сек
Цветовое пространство : YUV
Субдискретизация насыщенности : 4:2:0
Битовая глубина : 8 бит
Тип развёртки : Прогрессивная
Бит/(Пиксели*Кадры) : 0.334
Размер потока : 3,90 Гбайт (74%)
Библиотека кодирования : x264 core 142 r2431+42 c69a006 tMod [8-bit@all X86_64]
Настройки программы : cabac=1 / ref=12 / deblock=1:-3:-3 / analyse=0x3:0x133 / me=umh / subme=11 / psy=1 / fade_compensate=0.00 / psy_rd=1.09:1.09 / mixed_ref=1 / me_range=48 / chroma_me=1 / trellis=2 / 8x8dct=1 / cqm=0 / deadzone=21,11 / fast_pskip=0 / chroma_qp_offset=-4 / threads=16 / lookahead_threads=2 / sliced_threads=0 / nr=0 / decimate=0 / interlaced=0 / bluray_compat=0 / constrained_intra=0 / fgo=0 / bframes=8 / b_pyramid=2 / b_adapt=2 / b_bias=0 / direct=3 / weightb=1 / open_gop=0 / weightp=2 / keyint=240 / keyint_min=23 / scenecut=40 / intra_refresh=0 / rc_lookahead=150 / rc=2pass / mbtree=0 / bitrate=5500 / ratetol=1.0 / qcomp=0.60 / qpmin=0:0:0 / qpmax=69:69:69 / qpstep=4 / cplxblur=20.0 / qblur=0.5 / vbv_maxrate=62500 / vbv_bufsize=78125 / nal_hrd=none / filler=0 / ip_ratio=1.20 / pb_ratio=1.30 / aq=2:0.80 / aq-sensitivity=10.00 / aq-factor=1.00:1.00:1.00 / aq2=0 / aq3=0
Язык : English
Default : Да
Forced : Нет
Цветовой диапазон : Limited
Основные цвета : BT.709
Характеристики трансфера : BT.709
Коэффициенты матрицы : BT.709
Аудио #1
Идентификатор : 2
Формат : AC-3
Формат/Информация : Audio Coding 3
Коммерческое название : Dolby Digital
Идентификатор кодека : A_AC3
Продолжительность : 1 ч. 41 м.
Вид битрейта : Постоянный
Битрейт : 384 Кбит/сек
Каналы : 6 каналов
Channel layout : L R C LFE Ls Rs
Частота : 48,0 КГц
Частота кадров : 31,250 кадров/сек (1536 SPF)
Битовая глубина : 16 бит
Метод сжатия : С потерями
Размер потока : 279 Мбайт (5%)
Язык : Russian
ServiceKind/String : Complete Main
Default : Да
Forced : Нет
Аудио #2
Идентификатор : 3
Формат : DTS
Формат/Информация : Digital Theater Systems
Идентификатор кодека : A_DTS
Продолжительность : 1 ч. 41 м.
Вид битрейта : Постоянный
Битрейт : 1509 Кбит/сек
Каналы : 6 каналов
Channel layout : C L R Ls Rs LFE
Частота : 48,0 КГц
Частота кадров : 93,750 кадра/сек (512 SPF)
Битовая глубина : 24 бит
Метод сжатия : С потерями
Размер потока : 1,07 Гбайт (20%)
Язык : English
Default : Нет
Forced : Нет
Текст
Идентификатор : 4
Формат : PGS
Идентификатор кодека : S_HDMV/PGS
Идентификатор кодека/Информация : Picture based subtitle format used on BDs/HD-DVDs
Продолжительность : 1 ч. 39 м.
Битрейт : 64,5 Кбит/сек
ElementCount : 4264
Размер потока : 46,1 Мбайт (1%)
Язык : English
Default : Нет
Forced : Нет
Меню
00:00:00.000 : :00:00:00.000
00:06:46.114 : :00:06:46.114
00:13:07.120 : :00:13:07.120
00:20:45.494 : :00:20:45.494
00:26:26.835 : :00:26:26.835
00:33:53.573 : :00:33:53.573
00:37:39.924 : :00:37:39.924
00:44:32.086 : :00:44:32.086
00:48:37.498 : :00:48:37.498
00:54:55.125 : :00:54:55.125
01:01:10.792 : :01:01:10.792
01:07:15.698 : :01:07:15.698
01:10:11.999 : :01:10:11.999
01:19:27.346 : :01:19:27.346
01:28:11.495 : :01:28:11.495
01:35:13.082 : :01:35:13.082
[Profile] [PM]
Display posts:    
Reply to topic

Current time is: 24-Feb 05:09

All times are UTC + 3



You cannot post new topics in this forum
You cannot reply to topics in this forum
You cannot edit your posts in this forum
You cannot delete your posts in this forum
You cannot vote in polls in this forum
You cannot attach files in this forum
You cannot download files in this forum