Владимир Шахрин. Жить надо в Чайф (2019) HDTV 1080p от R.G.GeneralFilm

Reply to topic
 
Author Message

White Smoke ®

Gender: Male

Longevity: 8 months 9 days

Posts: 72

Post 24-Jun-2019 18:23

[Quote]

Владимир Шахрин. Жить надо в Чайф Год выпуска: 2019
Жанр: Документальный
Выпущено: Россия, Первый канал
Режиссер: Ирина Голубева
В ролях: Владимир Машков, Андрей Макаревич, Андрей Смоляков, Дмитрий Гройсман, Сергей Галанин, Камиль Ларин
О фильме: Владимир Шахрин - нестандартный рокер. Он ведёт спортивный образ жизни, предпочитает безалкогольные напитки и всю жизнь любит одну женщину. Сейчас у Шахрина уже четверо внуков. Сам он искренне считает, что по жизни нужно быть проще: "Бутылка кефира, полбатона", - что ещё нужно для счастья?
Качество: HDTV 1080p
Видео: AVC, 1920x1080 (16:9), 25.000 fps, 3 921 Kbps (0.076 bit/pixel)
Аудио: AC3, 48.0 KHz, 2 ch, 192 Kbps
Продолжительность: 00:51:53
Перевод / Озвучка: Не требуется
Cубтитры: нет

Скриншоты





MediaInfo

General
Unique ID : 226853258414443767951887440828496428144 (0xAAAA592C8FFDE02ABA41B82F6E913C70)
Complete name : E:\Запись с тв\Vladimir Shaxrin Zhit nado v Chajf.mkv
Format : Matroska
Format version : Version 4 / Version 2
File size : 1.52 GiB
Duration : 51 min 52 s
Overall bit rate : 4 197 kb/s
Encoded date : UTC 2019-06-24 14:52:22
Writing application : mkvmerge v6.8.0 ('Theme for Great Cities') 64bit built on Mar 2 2014 21:34:26
Writing library : libebml v1.3.0 + libmatroska v1.4.1
Video
ID : 1
Format : AVC
Format/Info : Advanced Video Codec
Format profile : High@L4
Format settings : CABAC / 3 Ref Frames
Format settings, CABAC : Yes
Format settings, ReFrames : 3 frames
Format settings, GOP : M=4, N=10
Codec ID : V_MPEG4/ISO/AVC
Duration : 51 min 52 s
Bit rate : 3 921 kb/s
Width : 1 920 pixels
Height : 1 080 pixels
Display aspect ratio : 16:9
Frame rate mode : Constant
Frame rate : 25.000 FPS
Color space : YUV
Chroma subsampling : 4:2:0
Bit depth : 8 bits
Scan type : Progressive
Bits/(Pixel*Frame) : 0.076
Stream size : 1.42 GiB (93%)
Default : Yes
Forced : No
Audio
ID : 2
Format : AC-3
Format/Info : Audio Coding 3
Commercial name : Dolby Digital
Codec ID : A_AC3
Duration : 51 min 52 s
Bit rate mode : Constant
Bit rate : 192 kb/s
Channel(s) : 2 channels
Channel layout : L R
Sampling rate : 48.0 kHz
Frame rate : 31.250 FPS (1536 SPF)
Bit depth : 16 bits
Compression mode : Lossy
Stream size : 71.2 MiB (5%)
Service kind : Complete Main
Default : Yes
Forced : No
Релиз от:
[Profile] [PM]
Display posts:    
Reply to topic

Current time is: 22-Jul 09:37

All times are UTC + 3



You cannot post new topics in this forum
You cannot reply to topics in this forum
You cannot edit your posts in this forum
You cannot delete your posts in this forum
You cannot vote in polls in this forum
You cannot attach files in this forum
You cannot download files in this forum