Большое путешествие (2019) WEB-DLRip от GeneralFilm | iTunes

Reply to topic
 
Author Message

vsobbol ®

Gender: Male

Longevity: 8 months 6 days

Posts: 239

Location: Донецк

Post 26-Jun-2019 19:40

[Quote]

Большое путешествие
Год выпуска: 2019
Выпущено: Мультфильм, комедия, приключения, семейный
Режиссер: Василий Ровенский, Наталья Нилова
В ролях: Дмитрий Назаров, Максим Галкин, Филипп Киркоров, Алексей Воробьёв, Татьяна Навка, Диомид Виноградов
О фильме: Однажды бестолковый аист из центра доставки детей перепутал адреса и вместо того, чтобы доставить малыша в семью панд, приносит его медведю по имени Мик-Мик. Мик-Мик во всём любит порядок и решает доставить малыша панду его родителям в южную часть Китая. В путешествие с ним увязывается непутёвый сосед заяц Оскар. По дороге они встречают хвастливого пеликана Дюка, трусливого волка Януса и романтичного тигра Амура.

Качество: WEB-DLRip
Видео: XviD build 73, 720x304 (2.37:1), 25.000 fps, 1159 Kbps (0.212 bit/pixel)
Аудио: 48.0 kHz, MP3, 2 ch, 128 kbps
Продолжительность: 01:20:21
Перевод / Озвучка: Не требуется [Русский]
Cубтитры: нет

Скриншоты

MediaInfo

General
Complete name : D:\Razdachi\Boljshoe.Puteshestvie.2019.WEB-DLRip.745mb.GeneralFilm.avi
Format : AVI
Format/Info : Audio Video Interleave
File size : 745 MiB
Duration : 1 h 20 min
Overall bit rate : 1 297 kb/s
Writing application : VirtualDubMod 1.5.10.3 | www.virtualdub-fr.org || (build 2550/release)
Writing library : VirtualDubMod build 2550/release
Video
ID : 0
Format : MPEG-4 Visual
Format profile : Advanced Simple@L5
Format settings : BVOP1 / Custom Matrix
Format settings, BVOP : 1
Format settings, QPel : No
Format settings, GMC : No warppoints
Format settings, Matrix : Custom
Codec ID : XVID
Codec ID/Hint : XviD
Duration : 1 h 20 min
Bit rate : 1 159 kb/s
Width : 720 pixels
Height : 304 pixels
Display aspect ratio : 2.35:1
Frame rate : 25.000 FPS
Color space : YUV
Chroma subsampling : 4:2:0
Bit depth : 8 bits
Scan type : Progressive
Compression mode : Lossy
Bits/(Pixel*Frame) : 0.212
Stream size : 666 MiB (89%)
Writing library : XviD 73
Audio
ID : 1
Format : MPEG Audio
Format version : Version 1
Format profile : Layer 3
Codec ID : 55
Codec ID/Hint : MP3
Duration : 1 h 20 min
Bit rate mode : Constant
Bit rate : 128 kb/s
Channel(s) : 2 channels
Sampling rate : 48.0 kHz
Frame rate : 41.667 FPS (1152 SPF)
Compression mode : Lossy
Stream size : 73.6 MiB (10%)
Alignment : Aligned on interleaves
Interleave, duration : 40 ms (1.00 video frame)
Interleave, preload duratio : 504 ms
Writing library : LAME3.99r
Encoding settings : -m s -V 4 -q 2 -lowpass 17 -b 128
Релиз от:
[Profile] [PM]
Display posts:    
Reply to topic

Current time is: 22-Jul 09:36

All times are UTC + 3



You cannot post new topics in this forum
You cannot reply to topics in this forum
You cannot edit your posts in this forum
You cannot delete your posts in this forum
You cannot vote in polls in this forum
You cannot attach files in this forum
You cannot download files in this forum