Твоя или моя семья / Твоя семья или моя / Your Family or Mine [1 сезон: серии 1-10 из 10] (2015) WEB-DL 720p | ViruseProject

Ответить на тему
 
Автор Сообщение

Winchester96 ®

Пол: Мужской

Стаж: 3 месяца 3 дня

Сообщений: 12

Откуда: Казахстан

Создавать темы 18-Ноя-2018 10:54

[Цитировать]

Твоя или моя семья / Твоя семья или моя / Your Family or Mine [1 сезон: серии 1-10 из 10]
Название: Твоя или моя семья / Твоя семья или моя
Оригинальное название: Your Family or Mine
Год выпуска: 2015 г.
Жанр: Комедия
Выпущено: США
Режиссер: Фил Льюис, Майкл Дж. Ши, Дэвид Трейнер
В ролях: Кайл Ховард, Кэт Фостер, Эндрю Лииз, Ричард Дрейфусс, Дэнни Комден, Стефани Хант, ДжоБет Уильямс, Анджела Кинси, Синтия Стивенсон, Эд Бегли мл. и др.
О фильме: Твоя или моя семья - американская сериал ситком, основанный на израильском сериале Sabri Maranan. Сериал рассказывает историю семейной пары Оливера (Кайл Ховард) и Келли (Кэт Фостер). Каждый эпизод покажет с разных сторон их семью и семьи их родителей.
Качество: WEB-DL 720p
Видео: 1 280 x 718 (4:2:0), 4 000 kb/s, 23.976 FPS, 8 bits
Аудио: 48.0 kHz, AC3, 2 channels, 192 kb/s
Продолжительность: 00:22:00
Перевод: Профессиональный (двухголосый закадровый) - ViruseProject
Cубтитры: Русские, английские, внутри контента
ВНИМАНИЕ! Присутствует реклама спонсора, не мешающая просмотру. (аудио, 2 раза)

MediaInfo

Общее
Уникальный идентификатор : 191430392241183965362683691026141996828 (0x9004270829C0E8A6BBD777EB10D8E71C)
Полное имя : D:\Your.Family.or.Mine.S01.720p.ViruseProject\Your.Family.or.Mine.S01E01.720p.WEB-DL.ViruseProject.mkv
Формат : Matroska
Версия формата : Version 4 / Version 2
Размер файла : 703 Мбайт
Продолжительность : 21 м. 6 с.
Общий поток : 4657 Кбит/сек
Дата кодирования : UTC 2018-11-17 15:05:16
Программа кодирования : mkvmerge v8.3.0 ('Over the Horizon') 64bit
Библиотека кодирования : libebml v1.3.1 + libmatroska v1.4.2
Видео
Идентификатор : 1
Формат : AVC
Формат/Информация : Advanced Video Codec
Профиль формата : High@L3.1
Настройки формата : 2 Ref Frames
Параметр CABAC формата : Нет
Параметр RefFrames формата : 2 кадра
Идентификатор кодека : V_MPEG4/ISO/AVC
Продолжительность : 21 м. 6 с.
Битрейт : 3988 Кбит/сек
Ширина : 1280 пикселей
Высота : 718 пикселей
Соотношение сторон : 16:9
Режим частоты кадров : Постоянный
Частота кадров : 23,976 кадра/сек
Цветовое пространство : YUV
Субдискретизация насыщенности : 4:2:0
Битовая глубина : 8 бит
Тип развёртки : Прогрессивная
Бит/(Пиксели*Кадры) : 0.181
Размер потока : 602 Мбайт (86%)
Язык : English
Default : Да
Forced : Нет
Цветовой диапазон : Limited
Основные цвета : BT.709
Характеристики трансфера : BT.709
Коэффициенты матрицы : BT.709
Аудио #1
Идентификатор : 2
Формат : AC-3
Формат/Информация : Audio Coding 3
Идентификатор кодека : A_AC3
Продолжительность : 21 м. 6 с.
Вид битрейта : Постоянный
Битрейт : 192 Кбит/сек
Каналы : 2 канала
Расположение каналов : Front: L R
Частота : 48,0 КГц
Частота кадров : 31,250 кадров/сек (1536 SPF)
Битовая глубина : 16 бит
Метод сжатия : С потерями
Размер потока : 29,0 Мбайт (4%)
Заголовок : ViruseProject
Язык : Russian
ServiceKind/String : Complete Main
Default : Да
Forced : Нет
Аудио #2
Идентификатор : 3
Формат : AC-3
Формат/Информация : Audio Coding 3
Идентификатор кодека : A_AC3
Продолжительность : 21 м. 6 с.
Вид битрейта : Постоянный
Битрейт : 384 Кбит/сек
Каналы : 6 каналов
Расположение каналов : Front: L C R, Side: L R, LFE
Частота : 48,0 КГц
Частота кадров : 31,250 кадров/сек (1536 SPF)
Битовая глубина : 16 бит
Метод сжатия : С потерями
Размер потока : 58,0 Мбайт (8%)
Язык : English
ServiceKind/String : Complete Main
Default : Нет
Forced : Нет
Текст #1
Идентификатор : 4
Формат : UTF-8
Идентификатор кодека : S_TEXT/UTF8
Идентификатор кодека/Информация : UTF-8 Plain Text
Заголовок : ViruseProject
Язык : Russian
Default : Нет
Forced : Нет
Текст #2
Идентификатор : 5
Формат : UTF-8
Идентификатор кодека : S_TEXT/UTF8
Идентификатор кодека/Информация : UTF-8 Plain Text
Язык : English
Default : Нет
Forced : Нет

Скриншоты

[Профиль] [ЛС]
Показать сообщения:    
Ответить на тему

Текущее время: 17-Фев 20:03

Часовой пояс: UTC + 3



Вы не можете начинать темы
Вы не можете отвечать на сообщения
Вы не можете редактировать свои сообщения
Вы не можете удалять свои сообщения
Вы не можете голосовать в опросах
Вы не можете прикреплять файлы к сообщениям
Вы не можете скачивать файлы