Стрекоза [1-4 серии из 4] (2018) WEB-DLRip от Files-x

Reply to topic
 
Author Message

papa1951deda ®

Gender: Male

Longevity: 5 months 2 days

Posts: 220

Location: Казахстан

Post 28-Nov-2018 05:18

[Quote]

Стрекоза Год выпуска: 2018
Жанр: Мелодрама, детектив
Выпущено: Украина, Киевтелефильм, "Армада Филмз"
Режиссёр: Валерий Ибрагимов
В ролях: Александр Заднепровский, Вера Шпак, Тимофей Каратаев, Валерий Баринов, Денис Мартынов, Евгений Ефремов, Николай Боклан, Мария Климова
О фильме: Ирина - аферистка, детдомовка, давно запретившая себе мечтать о семье, привыкшая полагаться только на себя. За способность заболтать кого угодно получившая прозвище Стрекоза. Капитан полиции Игорь - ее полная противоположность. Правильный, порядочный, педантичный. Давно мечтает посадить Стрекозу, которая всегда оставляет его с носом. Эта парочка на дух не выносит друг друга. И ни за что не признается даже самим себе, что их тянет друг к другу. Игорю все же удается поймать Стрекозу, но она оказывается единственной свидетельницей по громкому делу против криминального авторитета Румынцева. Полиция предлагает Ирине сделку: ее показания в обмен на безопасность и "амнистию" всех ее прошлых грешков. Загнанная в угол Стрекоза соглашается, не представляя, что до суда им с Игорем придется жить в другом городе под видом любящих супругов. И без того непростая ситуация усложняется тем, что вечно ссорящуюся парочку селят в коммунальную квартиру, где живет весьма эксцентричный старик-писатель и двое детей, чья мать куда-то исчезла. Так под одной крышей оказываются сразу пять одиночеств, которые по стечению обстоятельств умудрятся стать настоящей семьей...
Качество: WEB-DLRip
Видео: XviD, ~ 1694 Кбит/с, 720x400, 25 кадр/с
Аудио: AC3, 2 ch, 192 Кбит/с
Продолжительность: 4 х ~ 00:51:00
Перевод: Не требуется
Субтитры: Нет

Скриншоты


MediaInfo

General
Complete name : D:\моё видио\Стрекоза.(2018).WEB-DLRip.by.Nicodem.Files-x\01.Стрекоза.(2018).WEB-DLRip.by.Nicodem.Files-x.avi
Format : AVI
Format/Info : Audio Video Interleave
File size : 700 MiB
Duration : 51mn 36s
Overall bit rate : 1 896 Kbps
Writing application : VirtualDubMod 1.5.10.3 | www.virtualdub-fr.org || (build 2550/release)
Writing library : VirtualDubMod build 2550/release
Video
ID : 0
Format : MPEG-4 Visual
Format profile : Advanced Simple@L5
Format settings, BVOP : 1
Format settings, QPel : No
Format settings, GMC : No warppoints
Format settings, Matrix : Custom
Codec ID : XVID
Codec ID/Hint : XviD
Duration : 51mn 36s
Bit rate : 1 694 Kbps
Width : 720 pixels
Height : 400 pixels
Display aspect ratio : 16:9
Frame rate : 25.000 fps
Color space : YUV
Chroma subsampling : 4:2:0
Bit depth : 8 bits
Scan type : Progressive
Compression mode : Lossy
Bits/(Pixel*Frame) : 0.235
Stream size : 625 MiB (89%)
Writing library : XviD 73
Audio
ID : 1
Format : AC-3
Format/Info : Audio Coding 3
Mode extension : CM (complete main)
Format settings, Endianness : Big
Codec ID : 2000
Duration : 51mn 36s
Bit rate mode : Constant
Bit rate : 192 Kbps
Channel(s) : 2 channels
Channel positions : Front: L R
Sampling rate : 48.0 KHz
Bit depth : 16 bits
Compression mode : Lossy
Stream size : 70.9 MiB (10%)
Alignment : Split accross interleaves
Interleave, duration : 40 ms (1.00 video frame)
Interleave, preload duration : 500 ms

Внимание! Раздача ведётся путём добавления новых серий

Раздача ведётся путём добавления новых серий, при каждом добавлении создаётся новый торрент. Чтобы начать докачку новой серии, пользователям необходимо сделать следующее:
- Остановить скачивание.
- Удалить старый торрент у себя из клиента (старые серии удалять не надо).
- Скачать новый торрент и запустить его у себя в клиенте вместо старого, при этом указать клиенту путь в старую папку куда и должно происходить скачивание новых серий.
Ваш клиент при этом должен произвести хеширование (проверку) старой папки (если не производит сам - помогите ему сделать это), и будет докачивать только те серии которых у вас ещё нет. Старые серии при этом не удаляются, а продолжают раздаваться!
Релиз от:
[Profile] [PM]
Display posts:    
Reply to topic

Current time is: 22-Apr 18:23

All times are UTC + 3



You cannot post new topics in this forum
You cannot reply to topics in this forum
You cannot edit your posts in this forum
You cannot delete your posts in this forum
You cannot vote in polls in this forum
You cannot attach files in this forum
You cannot download files in this forum