Discovery: Золотая лихорадка / Gold Rush [9 сезон: 1-22 серии из 22] (2018) HDTVRip 720p от GeneralFilm

Reply to topic
 
Author Message

Starik60 ®

Gender: Male

Longevity: 11 months 7 days

Posts: 171

Location: Москва, Россия

Post 14-Nov-2018 11:00

[Quote]

Золотая лихорадка / Gold Rush
Год выпуска: 2018
Жанр: Документальный, природа, география, путешествия, приключения, исследование
Выпущено: США, Raw Television, Discovery Channel
Режиссер: Кристофер Голдинг
В ролях: Паркер Шнабель, Тони Битс, Рик Несс, Моника Битс, Минни Битс
О фильме: Живя вдали от цивилизации на Аляске, предприимчивые и всем знакомые золотоискатели продолжают поиски драгоценного металла. С новыми работниками и машинами, новыми участками и способами добычи золота ставки повышаются, как никогда прежде. Но принесёт ли больший риск большую прибыль? У команд есть огромные драги, а значит, можно поставить перед собой самые амбициозные цели за всю историю программы! В то же время наших героев ждут серьезные трудности, им придется трудиться круглосуточно, чтобы обслуживать дорогое оборудование. При этом успех и шанс разбогатеть будет во многом зависеть от того, смогут ли члены команд ужиться друг с другом.

Качество: HDTVRip 720p
Видео: MPEG-4 AVC, ~ 4000 Кбит/с, 1280x720, 50 кадр/с
Аудио: MP2, 2 ch, 384 Кбит/с
Продолжительность: 22 х ~ 00:44:00
Перевод: Дублированный

Скриншоты



MediaInfo

Общее
Уникальный идентификатор : 230561324075248868610373819395280411060 (0xAD747EED1A717C74DA873B8D0C9F19B4)
Полное имя : D:\Золотая лихорадка S09 720p GeneralFilm\01 Золотая лихорадка GeneralFilm.mkv
Формат : Matroska
Версия формата : Version 2
Размер файла : 2,68 Гбайт
Продолжительность : 1 ч. 27 м.
Режим общего битрейта : Постоянный
Общий поток : 4390 Кбит/сек
Программа кодирования : Lavf54.63.104
Библиотека кодирования : Lavf54.63.104
Видео
Идентификатор : 1
Формат : AVC
Формат/Информация : Advanced Video Codec
Профиль формата : High@L4.1
Настройки формата : CABAC / 3 Ref Frames
Параметр CABAC формата : Да
Параметр RefFrames формата : 3 кадра
Идентификатор кодека : V_MPEG4/ISO/AVC
Продолжительность : 1 ч. 27 м.
Вид битрейта : Постоянный
Битрейт : 4000 Кбит/сек
Ширина : 1280 пикселей
Высота : 720 пикселей
Соотношение сторон : 16:9
Режим частоты кадров : Постоянный
Частота кадров : 50,000 кадров/сек
Стандарт вещания : PAL
Цветовое пространство : YUV
Субдискретизация насыщенности : 4:2:0
Битовая глубина : 8 бит
Тип развёртки : Прогрессивная
Бит/(Пиксели*Кадры) : 0.087
Размер потока : 2,40 Гбайт (89%)
Default : Нет
Forced : Нет
Цветовой диапазон : Limited
Основные цвета : BT.709
Характеристики трансфера : BT.709
Коэффициенты матрицы : BT.709
Аудио
Идентификатор : 2
Формат : MPEG Audio
Версия формата : Version 1
Профиль формата : Layer 2
Идентификатор кодека : A_MPEG/L2
Идентификатор кодека/Подсказка : MP2
Продолжительность : 1 ч. 27 м.
Вид битрейта : Постоянный
Битрейт : 384 Кбит/сек
Каналы : 2 канала
Частота : 48,0 КГц
Метод сжатия : С потерями
Задержка видео : 8 мс.
Размер потока : 240 Мбайт (9%)
Язык : English
Default : Да
Forced : Нет
Благодарю за отличный постер ValkiriaGF
Релиз от:


Last edited by Starik60 on 2019-04-08 10:41; edited 11 times in total
[Profile] [PM]

runetzone

Gender: Male

Longevity: 9 months 13 days

Posts: 65

Location: Санкт-Петербург

Post 11-Jan-2019 22:32 (after 1 month 27 days)

[Quote]

Спасибо за раздачу!!! ay
[Profile] [PM]

sosinsv79

Gender: Male

Longevity: 7 months 9 days

Posts: 3

Post 23-Mar-2019 10:30 (after 2 months 11 days)

[Quote]

Starik60, нетормози старый где 22 серия?
[Profile] [PM]

kachmoney

Longevity: 10 months 17 days

Posts: 1

Post 14-Sep-2019 20:14 (after 5 months 22 days)

[Quote]

Starik60, Уважаемый, почему не выходят новые серии документальных сериалов типа: золотая лихорадка, золотая лихорадка под лед, смертельный улов и т.д?
[Profile] [PM]
Display posts:    
Reply to topic

Current time is: 19-Oct 21:35

All times are UTC + 3



You cannot post new topics in this forum
You cannot reply to topics in this forum
You cannot edit your posts in this forum
You cannot delete your posts in this forum
You cannot vote in polls in this forum
You cannot attach files in this forum
You cannot download files in this forum