Битва экстрасенсов [19 сезон: серии 1-14 из 14] (2018) HDTV 1080p от Generalfilm

Reply to topic
 
Author Message

Winchester96 ®

Gender: Male

Longevity: 5 months 8 days

Posts: 12

Location: Казахстан

Post 18-Nov-2018 15:53

[Quote]

Битва экстрасенсов
Год выпуска: 2018
Жанр: Реалити - шоу
Выпущено: Россия
Режиссер: Фёдор Торстенсен , Ольга Шмид , Олег Чаурс
Ведущий: Марат Башаров
О фильме: «Битва экстрасенсов» на канале ТНТ доказывает: сверхъестественные способности существуют, а их обладатели могут спасти жизнь, найти пропавшего ребенка, рассказать о прошлом и будущем и просто вернуть потерянный телефон.

Качество: HDTV 1080p
Видео: AVC, 1920x1080 (16:9), 7050 kbps, 25 fps, 0,136 bpp
Аудио: AC3 / 2.0 / 48 kHz / 192 kbps /
Продолжительность: 01:32:38
Перевод: Не требуется
Cубтитры: Нет

Скриншоты

MediaInfo

General
Unique ID : 232206253388240451437512307949829296092 (0xAEB14C33EEE84B6C8D921DC576C30FDC)
Complete name : E:Запись с твBitva ekstrasensov S19.2018.HDTV 1080p.RG GeneralFilmBitva ekstrasensov.s19.e01.2018.HDTV 1080p.by.White Smoke.R.G.Generalfilm.mkv
Format : Matroska
Format version : Version 4 / Version 2
File size : 4.68 GiB
Duration : 1 h 32 min
Overall bit rate mode : Constant
Overall bit rate : 7 236 kb/s
Movie name : Bitva ekstrasensov.s19.e01.2018.HDTV 1080p.by.White Smoke.R.G.Generalfilm.mkv
Encoded date : UTC 2018-09-22 23:19:51
Writing application : mkvmerge v6.8.0 ('Theme for Great Cities') 64bit built on Mar 2 2014 21:34:26
Writing library : libebml v1.3.0 + libmatroska v1.4.1
Cover : Yes
Attachments : cover.png
Video
ID : 1
Format : AVC
Format/Info : Advanced Video Codec
Format profile : High@L4.1
Format settings, CABAC : Yes
Format settings, ReFrames : 3 frames
Codec ID : V_MPEG4/ISO/AVC
Duration : 1 h 32 min
Bit rate mode : Constant
Bit rate : 7 051 kb/s
Width : 1 920 pixels
Height : 1 080 pixels
Display aspect ratio : 16:9
Frame rate mode : Constant
Frame rate : 25.000 FPS
Standard : PAL
Color space : YUV
Chroma subsampling : 4:2:0
Bit depth : 8 bits
Scan type : Progressive
Bits/(Pixel*Frame) : 0.136
Stream size : 4.46 GiB (95%)
Default : Yes
Forced : No
Color range : Limited
Color primaries : BT.709
Transfer characteristics : BT.709
Matrix coefficients : BT.709
Audio
ID : 2
Format : AC-3
Format/Info : Audio Coding 3
Mode extension : CM (complete main)
Format settings, Endianness : Big
Codec ID : A_AC3
Duration : 1 h 32 min
Bit rate mode : Constant
Bit rate : 192 kb/s
Channel(s) : 2 channels
Channel positions : Front: L R
Sampling rate : 48.0 kHz
Frame rate : 31.250 FPS (1536 spf)
Compression mode : Lossy
Stream size : 127 MiB (3%)
Default : Yes
Forced : No
[Profile] [PM]
Display posts:    
Reply to topic

Current time is: 22-Apr 08:01

All times are UTC + 3



You cannot post new topics in this forum
You cannot reply to topics in this forum
You cannot edit your posts in this forum
You cannot delete your posts in this forum
You cannot vote in polls in this forum
You cannot attach files in this forum
You cannot download files in this forum