Дорожная карта Расследование Аркадия Мамонтова (2019) HDTV 1080p от R.G.Generalfilm

Reply to topic
 
Author Message

White Smoke ®

Gender: Male

Longevity: 9 months 11 days

Posts: 77

Post 11-Aug-2019 18:07

[Quote]

Дорожная карта расследование Аркадия Мамонтова Год выпуска: 2019
Жанр: Документальный
Выпущено: Россия Телеканал Россия 1
Режиссер: Кирилл Ващенко
Автор и ведущий: Аркадий Мамонтов
О фильме:Сегодня в России полным ходом идет инфраструктурная революция. Государство вкладывает беспрецедентные суммы в дорожное строительство. Только в федеральной программе "Безопасные и качественные автомобильные дороги" участвуют 83 региона России. Для половины из них это - колоссальный толчок к экономическому развитию. Однако "головотяпство" на местах превращает благую идею в подобие фарса. Студии Аркадия Мамонтова совместно с Общероссийским Народным фронтом и Минтрансом удалось провести своё расследование о том, как идет реализация важнейшего национального проекта. Съемочной группе удалось получить сертификат инспектора, имеющего право проверять качество дорог и внедрить корреспондента в спецгруппу, проводившую независимый аудит качества дорожного полотна в разных регионах страны. В ходе исследования того, как местные власти выполняют задания по проекту "дорожная карта", были вскрыты и даже зафиксированы на камеру масштабные нарушения, недоделки и злоупотребления.Как, в нарушение технологии, вместо положенных 5-ти сантиметров асфальта кладут несколько миллиметров, сужают региональные автомагистрали на полметра, тем самым снижая безопасность трассы? Как местные чиновники пишут липовые отчеты о выполненных работах, которых на самом деле никто и не проводил? Как в российском областном центре водители такси отказываются выезжать по указанному адресу из-за непролазных улиц и переулков. Об этом и не только - в новом расследовании Аркадия Мамонтова.
Качество: HDTV 1080p
Видео: AVC, 1920x1080 (16:9), 7050 kbps, 25 fps, 0,136 bpp
Аудио: AC3 / 2.0 / 48 kHz / 192 kbps
Продолжительность: 00:42:38
Перевод : Не требуется
Cубтитры: нет

Скриншоты

MediaInfo

General
Unique ID : 222764020876184951638762573186844475688 (0xA796CA328B821CEFA8AD6549B4B24128)
Complete name : E:\Запись с тв\Dorozhnaya karta rassledovanie Arkadiya Mamontova.2019.HDTV 1080p.by.White Smoke.R.G.Generalfilm.mkv
Format : Matroska
Format version : Version 4 / Version 2
File size : 2.15 GiB
Duration : 42 min 38 s
Overall bit rate mode : Constant
Overall bit rate : 7 213 kb/s
Movie name : Dorozhnaya karta rassledovanie Arkadiya Mamontova.2019.HDTV 1080p.by.White Smoke.R.G.Generalfilm.mkv
Encoded date : UTC 2019-08-11 14:32:06
Writing application : mkvmerge v6.8.0 ('Theme for Great Cities') 64bit built on Mar 2 2014 21:34:26
Writing library : libebml v1.3.0 + libmatroska v1.4.1
Cover : Yes
Attachments : cover.png
Video
ID : 1
Format : AVC
Format/Info : Advanced Video Codec
Format profile : High@L4.1
Format settings : CABAC / 3 Ref Frames
Format settings, CABAC : Yes
Format settings, ReFrames : 3 frames
Codec ID : V_MPEG4/ISO/AVC
Duration : 42 min 38 s
Bit rate mode : Constant
Bit rate : 7 051 kb/s
Width : 1 920 pixels
Height : 1 080 pixels
Display aspect ratio : 16:9
Frame rate mode : Constant
Frame rate : 25.000 FPS
Standard : PAL
Color space : YUV
Chroma subsampling : 4:2:0
Bit depth : 8 bits
Scan type : Progressive
Bits/(Pixel*Frame) : 0.136
Stream size : 2.05 GiB (95%)
Default : Yes
Forced : No
Color range : Limited
Color primaries : BT.709
Transfer characteristics : BT.709
Matrix coefficients : BT.709
Audio
ID : 2
Format : AC-3
Format/Info : Audio Coding 3
Commercial name : Dolby Digital
Codec ID : A_AC3
Duration : 42 min 38 s
Bit rate mode : Constant
Bit rate : 192 kb/s
Channel(s) : 2 channels
Channel layout : L R
Sampling rate : 48.0 kHz
Frame rate : 31.250 FPS (1536 SPF)
Bit depth : 16 bits
Compression mode : Lossy
Stream size : 58.5 MiB (3%)
Service kind : Complete Main
Default : Yes
Forced : No
Релиз от:
[Profile] [PM]
Display posts:    
Reply to topic

Current time is: 24-Aug 15:37

All times are UTC + 3



You cannot post new topics in this forum
You cannot reply to topics in this forum
You cannot edit your posts in this forum
You cannot delete your posts in this forum
You cannot vote in polls in this forum
You cannot attach files in this forum
You cannot download files in this forum