Человек и закон [эфир 30.11] (2018) SATRip от GeneralFilm

Reply to topic
 
Author Message

Starik60 ®

Gender: Male

Longevity: 1 year

Posts: 182

Location: Москва, Россия

Post 29-Nov-2018 15:46

[Quote]

Человек и закон
Год выпуска: 2018
Жанр: Документальный, расследование
Выпущено: Россия, Телекомпания "Останкино"
Режиссер: Денис Пиманов
Ведущий: Алексей Пиманов
О фильме: Общественно-политическая программа "Человек и закон" выходит на главном телеканале страны уже 35 лет (Алексей Пиманов ведет программу с 1996 года). Столь "преклонный возраст" ничуть не мешает программе оставаться одной из самых востребованных и актуальных на отечественном телевидении. Быть может потому, что основные темы - борьба с организованной преступностью, расследования о коррупции в высших эшелонах власти, криминальные истории…
Официальный сайт
Качество: SATRip
Видео: XviD, 1600 Кбит/с, 720x400
Аудио: AC3, 2 ch, 192 Кбит/с
Продолжительность: 00:51:00
Перевод: Не требуется

Скриншоты


MediaInfo

General
Complete name : G:\Temp\Человек и закон 30.11.2018.GeneralFilm.avi
Format : AVI
Format/Info : Audio Video Interleave
File size : 632 MiB
Duration : 49 min 3 s
Overall bit rate : 1 802 kb/s
Writing application : VirtualDubMod 1.5.10.3 | www.virtualdub-fr.org || (build 2550/release)
Writing library : VirtualDubMod build 2550/release
Video
ID : 0
Format : MPEG-4 Visual
Format profile : Advanced Simple@L5
Format settings : BVOP1 / Custom Matrix
Format settings, BVOP : 1
Format settings, QPel : No
Format settings, GMC : No warppoints
Format settings, Matrix : Custom
Codec ID : XVID
Codec ID/Hint : XviD
Duration : 49 min 3 s
Bit rate : 1 600 kb/s
Width : 720 pixels
Height : 400 pixels
Display aspect ratio : 16:9
Frame rate : 25.000 FPS
Color space : YUV
Chroma subsampling : 4:2:0
Bit depth : 8 bits
Scan type : Progressive
Compression mode : Lossy
Bits/(Pixel*Frame) : 0.222
Stream size : 561 MiB (89%)
Writing library : XviD 73
Audio
ID : 1
Format : AC-3
Format/Info : Audio Coding 3
Commercial name : Dolby Digital
Codec ID : 2000
Duration : 49 min 3 s
Bit rate mode : Constant
Bit rate : 192 kb/s
Channel(s) : 2 channels
Channel layout : L R
Sampling rate : 48.0 kHz
Frame rate : 31.250 FPS (1536 SPF)
Bit depth : 16 bits
Compression mode : Lossy
Stream size : 67.4 MiB (11%)
Alignment : Split accross interleaves
Interleave, duration : 40 ms (1.00 video frame)
Interleave, preload duratio : 500 ms
Service kind : Complete Main

Содержание

«Девочка-бабочка». Лиза Кунигель. Ей было 9 лет, когда программа сделала об этой мужественной девочке с очень мудрыми глазами свой первый сюжет. У нее очень редкое генетическое заболевание: слишком тонкая кожа, кровоточащие раны появляются от любого неосторожного движения. У болезни красивое название. Остальное — бинты, страдания и непереносимая боль. Сегодня Лизе уже 16. И ей снова требуется наша помощь.
Инцидент в Керченском проливе как сознательная провокация в интересах Порошенко. В Одессе объявили мобилизацию. В Киеве с полок в магазинах сметают сахар, соль, спички. В Мариуполе школьников отправили рыть окопы. Хроники тревожной недели глазами простых людей.
Современная школа. Кто кого и чему сегодня учит. Барнаул. В поддержку парнишки, которого затюкали в школе, вступились в соцсетях. Известные люди даже флешмоб организовали! Москва. Почему в элитной испанской спецшколе издеваются над дочерью Натальи Ветлицкой. Комсомольск-на-Амуре. За что 9-летний пацан получил кучу подзатыльников от своей учительницы. Северодвинск. Учительница воспитывала своих подопечных скакалкой. За плохие оценки, мобильные телефоны на уроках. Видео попало в сеть, учительницу отстранили от работы — мнения разделились (права/не права) — но многие встали за нее горой (и педагоги, и ученики, и бывшие ученики). Что нужно знать школьникам и их родителям, чтобы в случае чего дать адекватный или зеркальный ответ малолетним задирам, хулиганам и отморозкам — советы психологов, которые специализируются на подростковых конфликтах.
Правовой дайджест недели. Замглавы Пенсионного фонда в Красноярском крае арестован по делу о хищении более 70 млн рублей. Легендарный вор Яша Суббота наконец попался в сети сотрудников МУРа, оперативные съемки. Мажора на Гелентвагене выдворили из страны.
Исторический детектив. 27 лет назад застрелили певца Игоря Талькова. За все эти годы слухов, домыслов, версий и гипотез было пруд пруди. Но дело так и осталось «висяком». Однако СК по г. Санкт-Петербургу преподнес сюрприз. Одно из самых громких убийств в истории России снова расследуют. Зачем, почему и есть ли шансы расставить, наконец, все точки по местам?
Релиз от:


Last edited by Starik60 on 2018-11-30 14:33; edited 1 time in total
[Profile] [PM]
Display posts:    
Reply to topic

Current time is: 13-Nov 03:50

All times are UTC + 3



You cannot post new topics in this forum
You cannot reply to topics in this forum
You cannot edit your posts in this forum
You cannot delete your posts in this forum
You cannot vote in polls in this forum
You cannot attach files in this forum
You cannot download files in this forum