Видок: Охотник на призраков / Видок: Император Парижа / L'Empereur de Paris (2018) BDRip 1080p от R.G.Generalfilm [DUB iTunes]

Reply to topic
 
Author Message

White Smoke ®

Gender: Male

Longevity: 10 months 5 days

Posts: 88

Post 27-Aug-2019 00:26

[Quote]

Видок: Охотник на призраков / Видок: Император Парижа / L'Empereur de Paris Год выпуска: 2018
Жанр: Приключения, история
Выпущено: Франция
Режиссер: Жан-Франсуа Рише
В ролях: Ольга Куриленко, Венсан Кассель, Фрейя Мавор, Аугуст Диль, Дени Меноше, Дени Лаван, Фабрис Лукини, Уилльям Скьортино, Джеймс Тьерре, Патрик Шене
О фильме: Эжен-Франсуа Видок сбегал из французских тюрем так часто, что стал настоящей легендой, однако после очередного побега он решил затаиться и пожить жизнью обычного торговца. Вот только спустя некоторое время неприятности вновь настигают его. Обвиненный в убийстве, которого не совершал, Видок заключает сделку с властями. Он обязуется использовать свои знания о криминальном мире Парижа для поисков и поимки самых опасных преступников французской столицы. Но несмотря на потрясающие результаты, которых достигает Видок в кратчайшие сроки, против него ополчаются стражи порядка. А лидеры криминального мира объявляют за его голову награду.
Качество: BDRip 1080p
Видео: MPEG-4 AVC,1920x800 (2.40:1), 8600 kbps, 23,976 fps, 0,234 bpp
Аудио: AC3 / 5.1 / 48 kHz / 384 kbps
Продолжительность: 02:00:04
Перевод : Дублированный [iTunes]
Cубтитры: нет

Скриншоты



MediaInfo

General
Unique ID : 225581678833890069950672451279632264323 (0xA9B57375DBDD8BB5B8F5195C9374EC83)
Complete name : E:\Запись с тв\L'Empereur de Paris (2018) BDRip-1080p.Rip.by.White Smoke.R.G.Generalfilm.mkv
Format : Matroska
Format version : Version 4 / Version 2
File size : 7.53 GiB
Duration : 2 h 0 min
Overall bit rate : 8 980 kb/s
Movie name : L'Empereur de Paris (2018) BDRip-1080p.Rip.by.White Smoke.R.G.Generalfilm.mkv
Encoded date : UTC 2019-08-26 19:48:38
Writing application : mkvmerge v6.8.0 ('Theme for Great Cities') 64bit built on Mar 2 2014 21:34:26
Writing library : libebml v1.3.0 + libmatroska v1.4.1
Cover : Yes
Attachments : cover.jpg
Video
ID : 1
Format : AVC
Format/Info : Advanced Video Codec
Format profile : High@L4.1
Format settings : CABAC / 5 Ref Frames
Format settings, CABAC : Yes
Format settings, ReFrames : 5 frames
Codec ID : V_MPEG4/ISO/AVC
Duration : 2 h 0 min
Bit rate : 8 600 kb/s
Width : 1 920 pixels
Height : 800 pixels
Display aspect ratio : 2.40:1
Frame rate mode : Constant
Frame rate : 23.976 (24000/1001) FPS
Color space : YUV
Chroma subsampling : 4:2:0
Bit depth : 8 bits
Scan type : Progressive
Bits/(Pixel*Frame) : 0.234
Stream size : 7.06 GiB (94%)
Writing library : x264 core 148 r2638 7599210
Encoding settings : cabac=1 / ref=5 / deblock=1:-2:-1 / analyse=0x3:0x113 / me=umh / subme=11 / psy=1 / psy_rd=0.00:0.15 / mixed_ref=1 / me_range=32 / chroma_me=1 / trellis=2 / 8x8dct=1 / cqm=0 / deadzone=21,11 / fast_pskip=0 / chroma_qp_offset=-3 / threads=6 / lookahead_threads=1 / sliced_threads=0 / nr=0 / decimate=0 / interlaced=0 / bluray_compat=0 / constrained_intra=0 / bframes=10 / b_pyramid=2 / b_adapt=2 / b_bias=0 / direct=1 / weightb=1 / open_gop=0 / weightp=2 / keyint=240 / keyint_min=23 / scenecut=40 / intra_refresh=0 / rc_lookahead=40 / rc=2pass / mbtree=1 / bitrate=8600 / ratetol=1.0 / qcomp=0.65 / qpmin=0 / qpmax=69 / qpstep=4 / cplxblur=20.0 / qblur=0.5 / vbv_maxrate=50000 / vbv_bufsize=65500 / nal_hrd=none / filler=0 / ip_ratio=1.40 / aq=1:1.00
Language : English
Default : Yes
Forced : No
Audio
ID : 2
Format : AC-3
Format/Info : Audio Coding 3
Commercial name : Dolby Digital
Codec ID : A_AC3
Duration : 2 h 0 min
Bit rate mode : Constant
Bit rate : 384 kb/s
Channel(s) : 6 channels
Channel layout : L R C LFE Ls Rs
Sampling rate : 48.0 kHz
Frame rate : 31.250 FPS (1536 SPF)
Bit depth : 16 bits
Compression mode : Lossy
Stream size : 330 MiB (4%)
Title : Дублированный (iTunes)
Language : Russian
Service kind : Complete Main
Default : Yes
Forced : No
Menu
00:00:00.000 : en:Chapter 01
00:10:12.821 : en:Chapter 02
00:19:20.493 : en:Chapter 03
00:30:27.325 : en:Chapter 04
00:41:02.293 : en:Chapter 05
00:54:33.020 : en:Chapter 06
01:06:07.338 : en:Chapter 07
01:15:48.335 : en:Chapter 08
01:23:11.778 : en:Chapter 09
01:32:59.240 : en:Chapter 10
01:42:15.504 : en:Chapter 11
01:54:05.213 : en:Chapter 12
Релиз от:
[Profile] [PM]
Display posts:    
Reply to topic

Current time is: 19-Sep 06:08

All times are UTC + 3



You cannot post new topics in this forum
You cannot reply to topics in this forum
You cannot edit your posts in this forum
You cannot delete your posts in this forum
You cannot vote in polls in this forum
You cannot attach files in this forum
You cannot download files in this forum