Discovery. Голые и напуганные XL / Naked and Afraid XL [5 сезон: 1-10 серии из 10] (2018) HDTV 1080p от Starik60

Reply to topic
 
Author Message

Starik60 ®

Gender: Male

Longevity: 1 year

Posts: 184

Location: Москва, Россия

Post 01-Sep-2019 16:03

[Quote]

Голые и напуганные XL / Naked and Afraid XL
Год выпуска: 2018
Жанр: Документальный, реалити-шоу, экстрим
Выпущено: США, Discovery, Renegade 83
Режиссер: Мисси Хьюз, Тимми Пол
В ролях: Клинт Живоин, Эррол Джеймс Снайдер, Пума Кабра, Кайли Фурно
О фильме: Те, кому пришлось выживать в дикой природе, признаются, что это одно из самых тяжелых испытаний в их жизни. Неужели найдутся смельчаки, которые решатся вернуться в смертоносные джунгли реки Амазонки, однажды уже побывав там? Девять отчаянных храбрецов готовы на это! В новом сезоне программы «Голые и напуганные XL» им предстоит разделиться на три команды и попытаться выжить без одежды, пищи и какого-либо снаряжения на протяжении 40 дней и ночей. Им предстоит бороться с голодом, болезнями и животными зная, что ближайший город находится в 150 км от них. Далеко не все смогут справиться с таким испытанием. Кто же сойдет с дистанции, а кто дойдет до конца?

Качество: HDTV 1080p
Видео: MPEG-4 AVC, ~ 7000 Кбит/с, 1920x1080
Аудио 1: RUS: AC3, 2 ch, 384 Кбит/c
Аудио 2: ENG: MP2, 2 ch, 192 Кбит/c
Продолжительность: 10 x ~ 00:44:00
Перевод: Профессиональный (многоголосый, закадровый)

Скриншоты



MediaInfo

General
Unique ID : 192081878011638693790292410835788006103 (0x90819FC2A3133B73B0BB5F8C075682D7)
Complete name : G:\Раздачи 2\Голые и напуганные XL S05 HDTV 1080p Starik660\01 Голые и напуганные XL by Starik60.mkv
Format : Matroska
Format version : Version 4 / Version 2
File size : 2.27 GiB
Duration : 44 min 1 s
Overall bit rate : 7 382 kb/s
Encoded date : UTC 2019-09-01 11:12:42
Writing application : mkvmerge v7.8.0 ('River Man') 64bit built on Mar 27 2015 16:31:37
Writing library : libebml v1.3.1 + libmatroska v1.4.2 / Lavf54.63.104
Cover : Yes
Attachments : cover1.jpg
Video
ID : 1
Format : AVC
Format/Info : Advanced Video Codec
Format profile : High@L4
Format settings : CABAC / 4 Ref Frames
Format settings, CABAC : Yes
Format settings, ReFrames : 4 frames
Codec ID : V_MPEG4/ISO/AVC
Duration : 44 min 1 s
Bit rate : 6 804 kb/s
Width : 1 920 pixels
Height : 1 080 pixels
Display aspect ratio : 16:9
Frame rate mode : Constant
Frame rate : 25.000 FPS
Standard : Component
Color space : YUV
Chroma subsampling : 4:2:0
Bit depth : 8 bits
Scan type : Interlaced
Scan type, store method : Separated fields
Scan order : Top Field First
Bits/(Pixel*Frame) : 0.131
Stream size : 2.09 GiB (92%)
Default : No
Forced : No
Color range : Limited
Color primaries : BT.709
Transfer characteristics : BT.709
Matrix coefficients : BT.709
Audio #1
ID : 2
Format : AC-3
Format/Info : Audio Coding 3
Commercial name : Dolby Digital
Codec ID : A_AC3
Duration : 44 min 1 s
Bit rate mode : Constant
Bit rate : 384 kb/s
Channel(s) : 6 channels
Channel layout : L R C LFE Ls Rs
Sampling rate : 48.0 kHz
Frame rate : 31.250 FPS (1536 SPF)
Bit depth : 16 bits
Compression mode : Lossy
Stream size : 121 MiB (5%)
Language : Russian
Service kind : Complete Main
Default : Yes
Forced : No
Audio #2
ID : 3
Format : MPEG Audio
Format version : Version 1
Format profile : Layer 2
Codec ID : A_MPEG/L2
Codec ID/Hint : MP2
Duration : 44 min 1 s
Bit rate mode : Constant
Bit rate : 192 kb/s
Channel(s) : 2 channels
Sampling rate : 48.0 kHz
Frame rate : 41.667 FPS (1152 SPF)
Compression mode : Lossy
Stream size : 60.5 MiB (3%)
Language : English
Default : No
Forced : No

Название серий

01. Ни капли влаги.
02. Водный мир.
03. Выживание с акулами.
04. Дьявол и Южно-Китайское море.
05. Брюхо зверя.
06. Нет, никаких подачек.
07. Поход в ад.
08. Худший кошмар Чарли.
09. Прощай, Жестокий Водный Мир.

Внимание! Раздача ведётся путём добавления новых серий

Раздача ведётся путём добавления новых серий, при каждом добавлении создаётся новый торрент. Чтобы начать докачку новой серии, пользователям необходимо сделать следующее:
- Остановить скачивание.
- Удалить старый торрент у себя из клиента (старые серии удалять не надо).
- Скачать новый торрент и запустить его у себя в клиенте вместо старого, при этом указать клиенту путь в старую папку куда и должно происходить скачивание новых серий.
Ваш клиент при этом должен произвести хеширование (проверку) старой папки (если не производит сам - помогите ему сделать это), и будет докачивать только те серии которых у вас ещё нет. Старые серии при этом не удаляются, а продолжают раздаваться!
Благодарю за отличный постер ValkiriaGF
Релиз от:
[Profile] [PM]

Satana

Gender: Male

Longevity: 9 months 2 days

Posts: 5

Post 08-Nov-2019 16:50 (after 2 months 7 days)

[Quote]

Спасибо за рипы !
Только всего не 10 серий будет а как минимум 11-12 , посмотри конец 10 выпуска , следующий выпуск будет когда они в студии соберутся все вместе , как правило это либо двойной длинный выпуск , либо 2х стандартных :) ;) ждём продолжения от тебя :) ;)
подниму чтобы вместе были. :)
[Profile] [PM]

Starik60 ®

Gender: Male

Longevity: 1 year

Posts: 184

Location: Москва, Россия

Post 08-Nov-2019 16:55 (after 5 minutes)

[Quote]

14498Спасибо за рипы !
Только всего не 10 серий будет а как минимум 11-12 , посмотри конец 10 выпуска , следующий выпуск будет когда они в студии соберутся все вместе , как правило это либо двойной длинный выпуск , либо 2х стандартных :) ;) ждём продолжения от тебя :) ;)
подниму чтобы вместе были. :)
Продолжения не будет, т.к. начинается в это время новый сезон Остров с Беаром Грилсом.
[Profile] [PM]
Display posts:    
Reply to topic

Current time is: 20-Nov 08:34

All times are UTC + 3



You cannot post new topics in this forum
You cannot reply to topics in this forum
You cannot edit your posts in this forum
You cannot delete your posts in this forum
You cannot vote in polls in this forum
You cannot attach files in this forum
You cannot download files in this forum