Мажор [3 сезон: 1-16 серии из 16] (2018) HDTV 1080i от GeneralFilm

Ответить на тему
 
Автор Сообщение

olegka7373 ®

Пол: Мужской

Стаж: 4 месяца 8 дней

Сообщений: 73

Откуда: Россия, Новокузнецк

Создавать темы 14-Ноя-2018 13:42

[Цитировать]

Мажор - 3
Год выпуска: 2018
Жанр: Криминал, драма
Выпущено: Россия, Продюсерский центр «Среда»
Режиссер: Игорь Твердохлебов
В ролях: Павел Прилучный, Карина Разумовская, Дмитрий Шевченко, Александр Обласов, Дмитрий Лысенков, Игорь Черневич, Михаил Елисеев, Анна Цуканова-Котт, Дана Абызова, Игорь Жижикин, Анна Вартанян, Михаил Шеломенцев, Даниил Кокин, Игорь Грабузов, Антон Чернов, Владимир Селезнёв (II), Игорь Ключников
О фильме: Игорь Соколовский давно перестал быть тем Мажором, для которого служба в полиции – вынужденная «ссылка». Давняя смерть матери и недавнее убийство отца – два события, определившие его дальнейшую жизнь – могут быть раскрыты во многом благодаря этой службе. Мажор растёт как профессионал, ежедневно работая над раскрытием различных преступлений, но расследование главной драмы его жизни ставит перед ним новые задачи. Чтобы отомстить за смерть отца, он в совершенстве овладел бизнес-стратегиями, чтобы найти и наказать убийцу матери, ему нужно освоить нечто совершенно новое. И самое сложное при этом – остаться в рамках закона. В поисках преступника Мажор окажется у черты, но останутся ли у него законные средства, чтобы наказать убийцу?

Качество: HDTV (1080i)
Видео: MPEG-TS AVC, ~ 5700 Кбит/с, 1920x1080
Аудио: Русский (AC3, 2 ch, 384 Кбит/с), (MP2, 2 ch, 192 Кбит/с)
Продолжительность: 16 х ~ 00:50:00
Перевод: Не требуется
Субтитры: нет

Скриншоты


MediaInfo

Общее
Идентификатор : 1 (0x1)
Полное имя : D:\Запись\Mazhor.3.HDTV(1080i).GeneralFilm\01.Mazhor.3.HDTV(1080i).GeneralFilm.ts
Формат : MPEG-TS
Размер файла : 2,21 Гбайт
Продолжительность : 47 м. 39 с.
Режим общего битрейта : Переменный
Общий поток : 6627 Кбит/сек
Видео
Идентификатор : 1904 (0x770)
Идентификатор меню : 80 (0x50)
Формат : AVC
Формат/Информация : Advanced Video Codec
Профиль формата : High@L4
Параметр CABAC формата : Да
Параметр ReFrames формата : 3 кадра
Параметр GOP формата : M=4, N=32
Идентификатор кодека : 27
Продолжительность : 47 м. 39 с.
Битрейт : 5718 Кбит/сек
Ширина : 1920 пикселей
Высота : 1080 пикселей
Соотношение сторон : 16:9
Частота кадров : 25,000 кадров/сек
Стандарт вещания : Component
Цветовое пространство : YUV
Субдискретизация насыщенности : 4:2:0
Битовая глубина : 8 бит
Тип развёртки : Чересстрочная
Метод сохранения типа развёртки : Раздельные поля
Порядок развёртки : Верхнее поле первое
Бит/(Пиксели*Кадры) : 0.110
Размер потока : 1,90 Гбайт (86%)
Цветовой диапазон : Limited
Основные цвета : BT.709
Характеристики трансфера : BT.709
Коэффициенты матрицы : BT.709
Аудио #1
Идентификатор : 2904 (0xB58)
Идентификатор меню : 80 (0x50)
Формат : AC-3
Формат/Информация : Audio Coding 3
Расширение режима : CM (complete main)
Параметр Endianness формата : Big
Идентификатор кодека : 6
Продолжительность : 47 м. 39 с.
Вид битрейта : Постоянный
Битрейт : 384 Кбит/сек
Каналы : 6 каналов
Расположение каналов : Front: L C R, Side: L R, LFE
Частота : 48,0 КГц
Частота кадров : 31,250 кадров/сек (1536 spf)
Битовая глубина : 16 бит
Метод сжатия : С потерями
Задержка видео : -120 мс.
Размер потока : 131 Мбайт (6%)
Язык : Russian
Аудио #2
Идентификатор : 2905 (0xB59)
Идентификатор меню : 80 (0x50)
Формат : MPEG Audio
Версия формата : Version 1
Профиль формата : Layer 2
Идентификатор кодека : 3
Продолжительность : 47 м. 39 с.
Вид битрейта : Постоянный
Битрейт : 192 Кбит/сек
Каналы : 2 канала
Частота : 48,0 КГц
Метод сжатия : С потерями
Задержка видео : -120 мс.
Размер потока : 65,5 Мбайт (3%)
Язык : Russian
Релиз:
[Профиль] [ЛС]
Показать сообщения:    
Ответить на тему

Текущее время: 22-Мар 10:24

Часовой пояс: UTC + 3



Вы не можете начинать темы
Вы не можете отвечать на сообщения
Вы не можете редактировать свои сообщения
Вы не можете удалять свои сообщения
Вы не можете голосовать в опросах
Вы не можете прикреплять файлы к сообщениям
Вы не можете скачивать файлы