Экстрасенсы ведут расследование [3 сезон: серии 1 из ?] (2019) HDTV 1080p от R.G.Generalfilm

Reply to topic
 
Author Message

White Smoke ®

Gender: Male

Longevity: 11 months 6 days

Posts: 96

Post 03-Sep-2019 01:08

[Quote]

Экстрасенсы ведут расследование Год выпуска: 2018-2019
Жанр: Реалити-шоу
Выпущено: Россия, ТНТ
О фильме: Документальный триллер-детектив с участием самых загадочных экстрасенсов России! Это не шоу, а демонстрация реальной мощи ясновидения. Участники и победители нескольких сезонов «Битвы экстрасенсов» приводят документальные доказательства того, как паранормальные способности способны помочь людям. В этом цикле экстрасенсы находят пропавших родственников и угнанные автомобили, избавляют жилище от привидений и возвращают супругов в семьи. В фильмах создается «эффект присутствия» - зритель выступает очевидцем всех этапов процесса расследования. Комментарии свидетелей – следователей, самих героев событий – подтверждают правдоподобность происходящего на экране. А особенный интерес вызывает то, как люди со сверхвозможностями существуют в своих привычных условиях жизни и работы.
Качество: HDTV 1080p
Видео: AVC, 1920x1080 (16:9), 25.000 fps, 8 346 Kbps (0.140 bit/pixel)
Аудио: AC3 / 2.0 / 48 kHz / 192 kbps /
Продолжительность: 01:09:07
Перевод: Не требуется
Cубтитры: нет

Скриншоты



MediaInfo

General
Unique ID : 40144015705470554501381922574128965245 (0x1E3374C919157F26D0CFDD335D9CE67D)
Complete name : E:\Запись с тв\Ekstrasensy vedut rassledovanie S03.2019 HDTV 1080p RG GeneralFilm\Ekstrasensy vedut rassledovanie.s03.e01.2019.HDTV 1080p.by.White Smoke.R.G.Generalfilm.mkv
Format : Matroska
Format version : Version 2
File size : 3.70 GiB
Duration : 1 h 9 min
Overall bit rate mode : Constant
Overall bit rate : 7 666 kb/s
Writing application : Lavf54.63.104
Writing library : Lavf54.63.104
Video
ID : 1
Format : AVC
Format/Info : Advanced Video Codec
Format profile : High@L4.1
Format settings : CABAC / 3 Ref Frames
Format settings, CABAC : Yes
Format settings, ReFrames : 3 frames
Codec ID : V_MPEG4/ISO/AVC
Duration : 1 h 9 min
Bit rate mode : Constant
Bit rate : 7 322 kb/s
Nominal bit rate : 8 346 kb/s
Width : 1 920 pixels
Height : 1 080 pixels
Display aspect ratio : 16:9
Frame rate mode : Constant
Frame rate : 25.000 FPS
Standard : PAL
Color space : YUV
Chroma subsampling : 4:2:0
Bit depth : 8 bits
Scan type : Progressive
Bits/(Pixel*Frame) : 0.141
Stream size : 3.53 GiB (96%)
Default : No
Forced : No
Color range : Limited
Color primaries : BT.709
Transfer characteristics : BT.709
Matrix coefficients : BT.709
Audio
ID : 2
Format : AC-3
Format/Info : Audio Coding 3
Commercial name : Dolby Digital
Codec ID : A_AC3
Duration : 1 h 9 min
Bit rate mode : Constant
Bit rate : 192 kb/s
Channel(s) : 2 channels
Channel layout : L R
Sampling rate : 48.0 kHz
Frame rate : 31.250 FPS (1536 SPF)
Bit depth : 16 bits
Compression mode : Lossy
Stream size : 94.9 MiB (3%)
Service kind : Complete Main
Default : Yes
Forced : No
[Profile] [PM]
Display posts:    
Reply to topic

Current time is: 19-Oct 21:37

All times are UTC + 3



You cannot post new topics in this forum
You cannot reply to topics in this forum
You cannot edit your posts in this forum
You cannot delete your posts in this forum
You cannot vote in polls in this forum
You cannot attach files in this forum
You cannot download files in this forum