Военная хроника маленькой девочки (Сага о злой Тане) / Gekijouban Youjo Senki (2019) BDRip 1080p | Субтитры

Reply to topic
 
Author Message

Monk ®

Gender: Male

Longevity: 1 year

Posts: 9115

Location: Казань

Post 06-Sep-2019 12:12

[Quote]

Военная хроника маленькой девочки (Сага о злой Тане) / Gekijouban Youjo Senki Год выпуска: 2019
Жанр: Магия, военное
Выпущено: Япония, NUT
Режиссер: Ютака Уэмура
В ролях: Аой Юки, Саори Хаями, Хотю Оцука, Синъитиро Мики, Тэссё Гэнда, Нобуо Тобита, Харука Томацу, Даики Хамано, Юсукэ Кобаяси
О фильме: Действие картины развивается в далеком 1926 году. Таня Дегуршаф является майором в 203-м магическом батальоне Императорской армии, и теперь она возвращается к себе домой после того, как благополучно прошла кампания по уничтожению тех, кто входил в состав вооруженных сил Республики на Южном континенте. Планировалось устроить масштабное празднество в честь успешного окончания миссии, всем хотелось расслабиться и привести себя в порядок. Но этому не суждено было сбыться. В штаб приходит сообщение о том, что рядом с границей Российской Федерации началась глобальная мобилизация, а это значит, что воинам Империи предстоит пройти через множество сражений, и к ним нужно как следует подготовиться. В тот же самый момент руководством Союзного Королевства решено нарушить установленную территориальную целостность России. Как говорится, враг моего врага – мой друг, и поэтому всегда лучше объединиться, если есть общая цель, или противник, который мешает всем достигнуть своей цели. Но вот главная героиня еще даже не подозревает, что среди солдат другой стороны находится Мэри Сью, а она когда-то дала себе клятву, что обязательно отомстит за гибель своего любимого отца.
Качество: BDRip 1080p
Видео: MPEG-4 AVC, ~ 6363 Кбит/с, 1920x1080
Аудио: Японский (DTS, 6 ch, ~ 3600 Кбит/с), (FLAC, 2 ch, ~ 1390 Кбит/с)
Продолжительность: 01:38:26
Перевод: Отсутствует
Субтитры: Русские

Скриншоты


MediaInfo

Format : Matroska
Format version : Version 4
File size : 7.81 GiB
Duration : 1 h 38 min
Overall bit rate mode : Variable
Overall bit rate : 11.4 Mb/s
Encoded date : UTC 2019-08-24 05:51:39
Writing application : mkvmerge v28.2.0 ('The Awakening') 64-bit
Writing library : libebml v1.3.6 + libmatroska v1.4.9
Video
ID : 1
Format : AVC
Format/Info : Advanced Video Codec
Format profile : High@L5
Format settings : CABAC / 5 Ref Frames
Format settings, CABAC : Yes
Format settings, ReFrames : 5 frames
Codec ID : V_MPEG4/ISO/AVC
Duration : 1 h 38 min
Bit rate : 6 363 kb/s
Width : 1 920 pixels
Height : 1 080 pixels
Display aspect ratio : 16:9
Frame rate mode : Constant
Frame rate : 23.976 (24000/1001) FPS
Color space : YUV
Chroma subsampling : 4:2:0
Bit depth : 8 bits
Scan type : Progressive
Bits/(Pixel*Frame) : 0.128
Stream size : 4.38 GiB (56%)
Writing library : x264 core 157 r2935 545de2f
Encoding settings : cabac=1 / ref=5 / deblock=1:1:1 / analyse=0x3:0x113 / me=umh / subme=9 / psy=1 / psy_rd=1.00:0.00 / mixed_ref=1 / me_range=32 / chroma_me=1 / trellis=1 / 8x8dct=1 / cqm=0 / deadzone=21,11 / fast_pskip=0 / chroma_qp_offset=-2 / threads=34 / lookahead_threads=2 / sliced_threads=0 / nr=0 / decimate=1 / interlaced=0 / bluray_compat=0 / stitchable=1 / constrained_intra=0 / bframes=3 / b_pyramid=2 / b_adapt=2 / b_bias=0 / direct=1 / weightb=1 / open_gop=0 / weightp=1 / keyint=240 / keyint_min=23 / scenecut=40 / intra_refresh=0 / rc_lookahead=40 / rc=crf / mbtree=1 / crf=15.0 / qcomp=0.70 / qpmin=0 / qpmax=69 / qpstep=4 / ip_ratio=1.40 / aq=1:1.00
Language : Japanese
Default : Yes
Forced : No
Audio #1
ID : 2
Format : DTS XLL
Format/Info : Digital Theater Systems
Commercial name : DTS-HD Master Audio
Codec ID : A_DTS
Duration : 1 h 38 min
Bit rate mode : Variable
Bit rate : 3 600 kb/s
Channel(s) : 6 channels
Channel layout : C L R Ls Rs LFE
Sampling rate : 48.0 kHz
Frame rate : 93.750 FPS (512 SPF)
Bit depth : 24 bits
Compression mode : Lossless
Stream size : 2.48 GiB (32%)
Language : Japanese
Default : Yes
Forced : No
Audio #2
ID : 3
Format : FLAC
Format/Info : Free Lossless Audio Codec
Codec ID : A_FLAC
Duration : 1 h 38 min
Bit rate mode : Variable
Bit rate : 1 390 kb/s
Channel(s) : 2 channels
Channel layout : L R
Sampling rate : 48.0 kHz
Frame rate : 11.719 FPS (4096 SPF)
Bit depth : 24 bits
Compression mode : Lossless
Stream size : 979 MiB (12%)
Writing library : libFLAC 1.3.2 (UTC 2017-01-01)
Language : Japanese
Default : No
Forced : No
[Profile] [PM]
Display posts:    
Reply to topic

Current time is: 17-Nov 19:28

All times are UTC + 3



You cannot post new topics in this forum
You cannot reply to topics in this forum
You cannot edit your posts in this forum
You cannot delete your posts in this forum
You cannot vote in polls in this forum
You cannot attach files in this forum
You cannot download files in this forum