Новый Comedy Club [эфир от 16.11] (2018) HDTVRip 1080p

Reply to topic
 
Author Message

Мухич ®

Gender: Male

Longevity: 5 months 2 days

Posts: 53

Post 30-Nov-2018 20:12

[Quote]

Новый Comedy Club
Год выпуска: 2018
Жанр: ТВ-шоу, юмор
Выпущено: Россия, ТНТ
Ведущий: Павел Воля, Гарик Харламов
О фильме: Как всегда, Comedy Club собрал все самое смешное, чтобы оставаться самым крутым юмористическим шоу на телевидении. Только самые лучшие номера от резидентов "Сomedy Сlub". Выдержанный юмор, проверенный временем и многомиллионной телевизионной аудиторией. Вы помните, что теперь Новый Comedy Club – больше чем просто шоу на сцене? Камеры готовы? Музыканты готовы? Зрители готовы? Поехали!

Качество: HDTVRip 1080p
Видео: MPEG-4 AVC, 4009 Кбит/с, 1920x1080, 25 кадр/с
Аудио: AC3, 2 ch, 192 Кбит/с
Продолжительность: ~ 00:46:00
Перевод: Не требуется
Субтитры: нет

Скриншоты

MediaInfo

General
Unique ID : 197774663522464508158580658563332512154 (0x94CA03C189AD2142A58C3D86C071199A)
Complete name : D:\Humor\Comedy\Comedy Club 489 (16-11-2018).mkv
Format : Matroska
Format version : Version 2
File size : 1.40 GiB
Duration : 46mn 35s
Overall bit rate mode : Variable
Overall bit rate : 4 287 Kbps
Encoded date : UTC 2018-11-17 05:00:56
Writing application : mkvmerge v6.1.0 ('Old Devil') built on Mar 4 2013 09:10:42
Writing library : libebml v1.3.0 + libmatroska v1.4.0
Video
ID : 1
Format : AVC
Format/Info : Advanced Video Codec
Format profile : High@L4.0
Format settings, CABAC : Yes
Format settings, ReFrames : 4 frames
Codec ID : V_MPEG4/ISO/AVC
Duration : 46mn 35s
Bit rate mode : Variable
Bit rate : 4 009 Kbps
Maximum bit rate : 4 500 Kbps
Width : 1 920 pixels
Height : 1 080 pixels
Display aspect ratio : 16:9
Frame rate mode : Constant
Frame rate : 25.000 fps
Color space : YUV
Chroma subsampling : 4:2:0
Bit depth : 8 bits
Scan type : Progressive
Bits/(Pixel*Frame) : 0.077
Stream size : 1.31 GiB (94%)
Default : Yes
Forced : No
Audio
ID : 2
Format : AC-3
Format/Info : Audio Coding 3
Mode extension : CM (complete main)
Format settings, Endianness : Big
Codec ID : A_AC3
Duration : 46mn 35s
Bit rate mode : Constant
Bit rate : 192 Kbps
Channel count : 2 channels
Channel positions : Front: L R
Sampling rate : 48.0 KHz
Bit depth : 16 bits
Compression mode : Lossy
Stream size : 64.0 MiB (4%)
Default : Yes
Forced : No
Автор релиза: Tyison
[Profile] [PM]
Display posts:    
Reply to topic

Current time is: 22-Apr 18:23

All times are UTC + 3



You cannot post new topics in this forum
You cannot reply to topics in this forum
You cannot edit your posts in this forum
You cannot delete your posts in this forum
You cannot vote in polls in this forum
You cannot attach files in this forum
You cannot download files in this forum