Экспроприатор [1-16 серии из 16] (2019) WEBRip от GeneralFilm | КПК

Reply to topic
 
Author Message

GORGIK ®

Gender: Male

Longevity: 10 months 3 days

Posts: 146

Location: СССР

Post 07-Sep-2019 12:21

[Quote]

Экспроприатор Год выпуска: 2019
Жанр: Криминал
Выпущено: Россия, Фаворит фильм
Режиссер: Владимир Краснопольский
В ролях: Артём Ткаченко, Артемий Шаффер, Павел Меленчук, Анна Табанина, Алексей Фатеев, Евгений Князев, Юрий Беляев, Соня Кравчук, Татьяна Абрамова, Анна Миклош, Наталья Круглова, Алексей Шевченков, Игорь Филиппов, Михаил Богдасаров, Егор Бакулин, Татьяна Чердынцева, Рамис Ибрагимов, Константин Глушков, Игорь Денисов, Евгения Любимова, Кирилл Продолятченко, Аркадий Коваль, Дмитрий Сутырин, Владимир Богданов, Сергей Русскин, Андрей Мокеев, Ольга Онищенко, Игорь Головин, Пётр Логачёв, Василий Щипицын, Михаил Касапов, Александр Демич (II), Олег Сенченко, Сергей Гамов, Светлана Селезнёва, Николай Иванов, Сергей Жукович, Вячеслав Павлють, Дмитрий Быковский-Ромашов, Олег Ткачёв, Сергей Власов (II)
О фильме: 1962 год. Молодой и удачливый вор Юрка-Барон, провернув очередную квартирную кражу, едет из Ленинграда в Москву, чтобы встретить с человеком из своего далёкого и страшного прошлого. В поезде он вспоминает свою жизнь, которая наверняка сложилась бы по-другому — если б не война, не репрессии и не родство матери с персональным шофёром Ленина, имевшим неосторожность написать крамольную рукопись…

Качество: WEBRip | КПК
Видео: MPEG-4 AVC (x264), 640x360, ~500 kbps, 25.000 fps
Аудио: AAC LC, 48.0 KHz, 2 ch, 128 Kbps
Продолжительность: 16 х ~00:52:00
Перевод / Озвучка: Не требуется [Русский]

Скриншоты

MediaInfo

Complete name : F:КИНОEkspropriator.S01.2018.AVC.WEB-DLRip.KPK.GFEkspropriator.s01e05.2018.AVC.WEB-DLRip.KPK.GF.mp4
Format : MPEG-4
Codec ID : M4V (isom/iso2/avc1)
File size : 236 MiB
Duration : 52 min 0 s
Overall bit rate mode : Variable
Overall bit rate : 633 kb/s
Writing application : Lavf53.19.0
Video
ID : 1
Format : AVC
Format/Info : Advanced Video Codec
Format profile : High@L4.1
Format settings, CABAC : Yes
Format settings, RefFrames : 8 frames
Codec ID : avc1
Codec ID/Info : Advanced Video Coding
Duration : 52 min 0 s
Bit rate : 500 kb/s
Width : 640 pixels
Height : 360 pixels
Display aspect ratio : 16:9
Frame rate mode : Constant
Frame rate : 25.000 FPS
Color space : YUV
Chroma subsampling : 4:2:0
Bit depth : 8 bits
Scan type : Progressive
Bits/(Pixel*Frame) : 0.087
Stream size : 186 MiB (79%)
Writing library : x264 core 148 r2638 7599210
Encoding settings : cabac=1 / ref=8 / deblock=1:-1:-1 / analyse=0x3:0x133 / me=umh / subme=10 / psy=1 / psy_rd=1.00:0.00 / mixed_ref=1 / me_range=24 / chroma_me=1 / trellis=2 / 8x8dct=1 / cqm=0 / deadzone=21,11 / fast_pskip=1 / chroma_qp_offset=-2 / threads=6 / lookahead_threads=1 / sliced_threads=0 / nr=0 / decimate=1 / interlaced=0 / bluray_compat=0 / constrained_intra=0 / bframes=8 / b_pyramid=2 / b_adapt=2 / b_bias=0 / direct=3 / weightb=1 / open_gop=0 / weightp=2 / keyint=250 / keyint_min=126 / scenecut=40 / intra_refresh=0 / rc_lookahead=40 / rc=2pass / mbtree=1 / bitrate=500 / ratetol=1.0 / qcomp=0.60 / qpmin=0 / qpmax=69 / qpstep=4 / cplxblur=20.0 / qblur=0.5 / ip_ratio=1.40 / aq=1:1.00
Menus : 3
Audio
ID : 2
Format : AAC
Format/Info : Advanced Audio Codec
Format profile : LC
Codec ID : 40
Duration : 52 min 0 s
Bit rate mode : Variable
Bit rate : 128 kb/s
Channel(s) : 2 channels
Channel positions : Front: L R
Sampling rate : 48.0 kHz
Frame rate : 46.875 FPS (1024 SPF)
Compression mode : Lossy
Stream size : 47.4 MiB (20%)
Default : Yes
Alternate group : 1
Menus : 3
Релиз от:
[Profile] [PM]
Display posts:    
Reply to topic

Current time is: 19-Sep 06:03

All times are UTC + 3



You cannot post new topics in this forum
You cannot reply to topics in this forum
You cannot edit your posts in this forum
You cannot delete your posts in this forum
You cannot vote in polls in this forum
You cannot attach files in this forum
You cannot download files in this forum