Удивительные люди [4 сезон: 1 выпуск] (2019) WEBRip 720p от Files-x

Reply to topic
 
Author Message

papa1951deda ®

Gender: Male

Longevity: 9 months 28 days

Posts: 290

Location: Казахстан

Post 09-Sep-2019 05:30

[Quote]

Удивительные люди Год выхода: 2019
Жанр: Развлекательное шоу, реалити-шоу
Страна: Россия, ВГТРК
Ведущий: Александр Гуревич
О фильме: В новом сезоне удивительным людям предстоит пройти новые сложные и интересные испытания. В каждом выпуске принимают участие 7 конкурсантов - великолепная семерка. В конце программы зрительный зал путем голосования выбирает одного победителя, который произвел самое сильное впечатление. В финале победители всех предыдущих выпусков встретятся, чтобы побороться за главный приз - один миллион рублей!
Качество: WEBRip 720p
Видео: MPEG-4 AVC, ~ 2160 Кбит/с, 1280х720, 25 кадр/с
Звук: АС3, 2 ch, 192 Кбит/с
Продолжительность: 1 х ~ 01:46:00
Перевод: Не требуется
Субтитры: нет

Скриншоты

MediaInfo

General
Unique ID : 211028751396044219366243530525971581378 (0x9EC2A8BDA9C0739389BFA7602C5809C2)
Complete name : D:\моё видио\Удивительные люди.4 сезон.2019.WEB-DL 720p.Files-х\01. Удивительные люди.4 сезон.2019.WEB-DL 720p.Files-х..mkv
Format : Matroska
Format version : Version 2
File size : 1.67 GiB
Duration : 1h 50mn
Overall bit rate : 2 162 Kbps
Encoded date : UTC 2019-09-08 20:55:08
Writing application : mkvmerge v7.8.0 ('River Man') 32bit built on Apr 3 2015 12:11:22
Writing library : libebml v1.3.1 + libmatroska v1.4.2
Video
ID : 1
Format : AVC
Format/Info : Advanced Video Codec
Format profile : Main@L3.1
Format settings, CABAC : Yes
Format settings, ReFrames : 3 frames
Codec ID : V_MPEG4/ISO/AVC
Duration : 1h 50mn
Bit rate : 1 927 Kbps
Width : 1 280 pixels
Height : 720 pixels
Display aspect ratio : 16:9
Frame rate mode : Constant
Frame rate : 25.000 fps
Color space : YUV
Chroma subsampling : 4:2:0
Bit depth : 8 bits
Scan type : Progressive
Bits/(Pixel*Frame) : 0.084
Stream size : 1.49 GiB (89%)
Default : Yes
Forced : No
Color primaries : BT.709
Transfer characteristics : BT.709
Matrix coefficients : BT.709
Audio
ID : 2
Format : AC-3
Format/Info : Audio Coding 3
Mode extension : CM (complete main)
Format settings, Endianness : Big
Codec ID : A_AC3
Duration : 1h 50mn
Bit rate mode : Constant
Bit rate : 192 Kbps
Channel(s) : 2 channels
Channel positions : Front: L R
Sampling rate : 44.1 KHz
Bit depth : 16 bits
Compression mode : Lossy
Stream size : 152 MiB (9%)
Default : Yes
Forced : No
Релиз от:
[Profile] [PM]
Display posts:    
Reply to topic

Current time is: 19-Sep 06:08

All times are UTC + 3



You cannot post new topics in this forum
You cannot reply to topics in this forum
You cannot edit your posts in this forum
You cannot delete your posts in this forum
You cannot vote in polls in this forum
You cannot attach files in this forum
You cannot download files in this forum