Человек и закон [эфир 04.10] (2019) SATRip от GeneralFilm

Reply to topic
 
Author Message

Starik60 ®

Gender: Male

Longevity: 11 months 7 days

Posts: 171

Location: Москва, Россия

Post 04-Oct-2019 12:37

[Quote]

Человек и закон
Год выпуска: 2019
Жанр: Документальный, расследование
Выпущено: Россия, Телекомпания "Останкино"
Режиссер: Денис Пиманов
Ведущий: Алексей Пиманов
О фильме: Общественно-политическая программа "Человек и закон" выходит на главном телеканале страны уже 35 лет (Алексей Пиманов ведет программу с 1996 года). Столь "преклонный возраст" ничуть не мешает программе оставаться одной из самых востребованных и актуальных на отечественном телевидении. Быть может потому, что основные темы - борьба с организованной преступностью, расследования о коррупции в высших эшелонах власти, криминальные истории…
Официальный сайт
Качество: SATRip
Видео: XviD, 1600 Кбит/с, 720x400
Аудио: AC3, 2 ch, 192 Кбит/с
Продолжительность: 00:51:00
Перевод: Не требуется

Скриншоты


MediaInfo

General
Complete name : G:\Temp\Человек и закон 04.10.2019.GeneralFilm.avi
Format : AVI
Format/Info : Audio Video Interleave
File size : 632 MiB
Duration : 49 min 3 s
Overall bit rate : 1 802 kb/s
Writing application : VirtualDubMod 1.5.10.3 | www.virtualdub-fr.org || (build 2550/release)
Writing library : VirtualDubMod build 2550/release
Video
ID : 0
Format : MPEG-4 Visual
Format profile : Advanced Simple@L5
Format settings : BVOP1 / Custom Matrix
Format settings, BVOP : 1
Format settings, QPel : No
Format settings, GMC : No warppoints
Format settings, Matrix : Custom
Codec ID : XVID
Codec ID/Hint : XviD
Duration : 49 min 3 s
Bit rate : 1 600 kb/s
Width : 720 pixels
Height : 400 pixels
Display aspect ratio : 16:9
Frame rate : 25.000 FPS
Color space : YUV
Chroma subsampling : 4:2:0
Bit depth : 8 bits
Scan type : Progressive
Compression mode : Lossy
Bits/(Pixel*Frame) : 0.222
Stream size : 561 MiB (89%)
Writing library : XviD 73
Audio
ID : 1
Format : AC-3
Format/Info : Audio Coding 3
Commercial name : Dolby Digital
Codec ID : 2000
Duration : 49 min 3 s
Bit rate mode : Constant
Bit rate : 192 kb/s
Channel(s) : 2 channels
Channel layout : L R
Sampling rate : 48.0 kHz
Frame rate : 31.250 FPS (1536 SPF)
Bit depth : 16 bits
Compression mode : Lossy
Stream size : 67.4 MiB (11%)
Alignment : Split accross interleaves
Interleave, duration : 40 ms (1.00 video frame)
Interleave, preload duratio : 500 ms
Service kind : Complete Main

Содержание

Скандал в благородном семействе продолжается. Правда ли, что родственники могли заморить голодом легендарную советскую актрису Элину Быстрицкую? Какую проверку проводит СК по Москве? Эксклюзив программы.
Правовой дайджест недели. Нападение на полковника СК Капустина прямо на проходной СК РФ — от полученных ножевых ран он умер в больнице. Наталья Бочкарева попала в переплет. В минувшее воскресенье СМИ раструбили, мол, известная актриса в центре Москвы поймана с наркотиками. Видеообращение Натальи не заставило себя долго ждать. Их имена снова у всех на устах. На сей раз камнем преткновения стали неудобные слова: «Зверь и абсолютное зло». В деле трех сестер Хачатурян новый поворот. Сестры убитого отца обратились в суд с иском уже на мать девочек.
Электронные цифровые подписи. Одни теряют квартиры, другие становятся «заемщиками» в банках, на третьих вешают огромное количество всевозможных фирм и делают их должниками перед налоговой службой. 50 молодых мамочек из Сургута обратились в программу с просьбой разобраться: кто-то без их ведома зарегистрировал на них электронные цифровые подписи и начал «шуровать». Специальное расследование.
Маски-шоу. Владимир Арцибашев, брат известного режиссера Сергея Арцибашева, и создатель культовой в советские времена музыкальной программы 50/50 попал в реанимацию. Ситуация нестандартная. Врачи не пускают родственников на порог и не комментируют состояние здоровья. По их версии, Арцибашева насильно удерживают в частной клинике, потому что не так давно были подделаны все его документы, а все движимое и недвижимое имущество переписано на чужих людей.
Релиз от:
[Profile] [PM]
Display posts:    
Reply to topic

Current time is: 19-Oct 21:37

All times are UTC + 3



You cannot post new topics in this forum
You cannot reply to topics in this forum
You cannot edit your posts in this forum
You cannot delete your posts in this forum
You cannot vote in polls in this forum
You cannot attach files in this forum
You cannot download files in this forum