Девушка с плеером / The Hidden Track (2019) WEB-DLRip-AVC от Files-x | D

Reply to topic
 
Author Message

Серый1779 ®

Gender: Male

Longevity: 11 months 7 days

Posts: 623

Location: Украина

Post 07-Oct-2019 02:07

[Quote]

Девушка с плеером / The Hidden Track Год выпуска: 2019
Жанр: Драма
Выпущено: Россия, Великобритания, Red Carpet Studio, Rits Film, Oakhill Productions
Режиссер: Брайан Лай
В ролях: Екатерина Шмакова, Алан Эмрис Приле, Тим Айткен-Смит, Джек Парр, Люк Хобсон, Дуги Вуд, Остин Кэйли, Кэтлин Худ, Алекс Рейнольдс, Настя Зиновьева
О фильме: Русская девушка Ника приезжает в Лондон, где несколько лет назад бесследно исчезла ее сестра Джен. Разместив на страничке в соцсети сообщение адресованное пропавшей сестре, Ника получает смс от неизвестного абонента. Это смс даёт ей подсказку, благодаря которой героиня берётся за собственное расследование. И начинает его в месте, где сегодня ищут и находят все и всех — в интернете, в социальных сетях. Новые зацепки приводят девушку в небольшой городок на окраине Лондона, где жила и работала сестра. Оказывается, она была девушкой солиста местной рок-группы, которая стала популярной сразу после исчезновения Джен. Рассказы лучших подруг сестры не совпадают в деталях, подробности жизни Джен кажутся странными, а рок-музыканты вызывают подозрения. Не расставаясь с любимым плеером, Ника ввязывается в игру, которая может стоить ей жизни, не подозревая, что ответы на вопросы можно найти именно в плеере.
Качество: WEB-DLRip (AVC)
Видео: MPEG-4 AVC, 1793 Кбит/с, 1024x424, 23.976 кадр/с
Аудио: AC3, 2 ch, 192 Кбит/с
Продолжительность: 01:38:38
Перевод: Дублированный
Субтитры: нет

Скриншоты



MediaInfo

General
Unique ID : 177175282324043336753210529736066581432 (0x854AB7D98D09C8B6BD7C70C1AF0BC3B8)
Complete name : E:\The.Hidden.Track.2019.WEB-DL.(1080p).ExKinoRay.mkv
Format : Matroska
Format version : Version 2
File size : 1.37 GiB
Duration : 1 h 38 min
Overall bit rate : 1 984 kb/s
Encoded date : UTC 2019-10-06 22:42:45
Writing application : mkvmerge v7.8.0 ('River Man') 32bit built on Apr 3 2015 12:11:22
Writing library : libebml v1.3.1 + libmatroska v1.4.2
Video
ID : 1
Format : AVC
Format/Info : Advanced Video Codec
Format profile : High@L4.1
Format settings : CABAC / 9 Ref Frames
Format settings, CABAC : Yes
Format settings, RefFrames : 9 frames
Codec ID : V_MPEG4/ISO/AVC
Duration : 1 h 38 min
Bit rate : 1 793 kb/s
Width : 1 024 pixels
Height : 424 pixels
Display aspect ratio : 2.40:1
Frame rate mode : Constant
Frame rate : 23.976 (24000/1001) FPS
Color space : YUV
Chroma subsampling : 4:2:0
Bit depth : 8 bits
Scan type : Progressive
Bits/(Pixel*Frame) : 0.172
Stream size : 1.21 GiB (88%)
Writing library : x264 core 146 r2538 121396c
Encoding settings : cabac=1 / ref=9 / deblock=1:-2:-1 / analyse=0x3:0x133 / me=umh / subme=9 / psy=1 / psy_rd=1.00:0.15 / mixed_ref=1 / me_range=32 / chroma_me=1 / trellis=2 / 8x8dct=1 / cqm=0 / deadzone=21,11 / fast_pskip=0 / chroma_qp_offset=-3 / threads=18 / lookahead_threads=3 / sliced_threads=0 / nr=0 / decimate=1 / interlaced=0 / bluray_compat=0 / constrained_intra=0 / bframes=9 / b_pyramid=2 / b_adapt=2 / b_bias=0 / direct=1 / weightb=1 / open_gop=0 / weightp=2 / keyint=250 / keyint_min=23 / scenecut=40 / intra_refresh=0 / rc=2pass / mbtree=0 / bitrate=1793 / ratetol=1.0 / qcomp=0.60 / qpmin=0 / qpmax=69 / qpstep=4 / cplxblur=20.0 / qblur=0.5 / ip_ratio=1.40 / pb_ratio=1.30 / aq=2:1.00
Default : Yes
Forced : No
Color range : Limited
Color primaries : BT.709
Transfer characteristics : BT.709
Matrix coefficients : BT.709
Audio
ID : 2
Format : AC-3
Format/Info : Audio Coding 3
Format settings, Endianness : Big
Codec ID : A_AC3
Duration : 1 h 38 min
Bit rate mode : Constant
Bit rate : 192 kb/s
Channel(s) : 2 channels
Channel positions : Front: L R
Sampling rate : 48.0 kHz
Frame rate : 31.250 FPS (1536 SPF)
Bit depth : 16 bits
Compression mode : Lossy
Stream size : 135 MiB (10%)
Service kind : Complete Main
Default : Yes
Forced : No

Примечание

Релиз без рекламы! Без логотипа и "всплывающих" надписей, видеоряд русский что очень важно (смс и надписи на русском)
Релиз от:
[Profile] [PM]
Display posts:    
Reply to topic

Current time is: 19-Oct 21:35

All times are UTC + 3



You cannot post new topics in this forum
You cannot reply to topics in this forum
You cannot edit your posts in this forum
You cannot delete your posts in this forum
You cannot vote in polls in this forum
You cannot attach files in this forum
You cannot download files in this forum