Щас спою! [1-2 выпуски из ??] (2019) WEBRip 720p от Files-x

Reply to topic
 
Author Message

papa1951deda ®

Gender: Male

Longevity: 10 months 29 days

Posts: 331

Location: Казахстан

Post 07-Oct-2019 12:33

[Quote]

Щас спою! Год выпуска: 2019
Жанр: Реалити-шоу
Выпущено: Россия, Первый канал
В ролях: Гарик Мартиросян
О фильме: Уникальное музыкальное шоу, в котором «худшие вокалисты страны» соберутся на одной сцене, чтобы исполнить заветную мечту — превзойти себя и спеть так хорошо, как никогда раньше. Все кандидаты проходили серьезный отбор: никаких профессиональных исполнителей и выпускников музыкальных школ, главное условие для участия — отсутствие слуха и голоса при непреодолимом желании петь на публике. В каждом выпуске «Щас спою» сразятся пять «вокалистов». Победит тот, чье пение причинит минимальный вред окружающим и за кого проголосует большинство зрителей в зале. Счастливчик получит приз и аплодисменты за волю к победе и преодоление себя. Ведущий Гарик Мартиросян: «Это уникальный телевизионный прикол. Наши участники, близкие и друзья которых всю жизнь испытывали душевные муки, слушая их ужасающий тембр или пение мимо нот, пытаются сделать хоть один маленький шажок вперед. И начинают петь лучше и раскованней, чем раньше. Естественно, мы не ждем от них, что они станут мировыми звездами. Я сам серьезно отношусь к музыке и считаю, что издевательство над ней недопустимо. Однако вот в таком веселом капустнике, где люди развлекаются, это уместно. Тем более мы все постоянно наблюдаем похожие выступления на любой вечеринке или в караоке. Вот и наше шоу — это музыкальный прикол с участием самых обычных людей. Почему бы и нет?»
Качество: WEBRip 720p
Видео: MPEG-4 AVC, 1 957 Кбит/с, 1280x720, 25 кадр/с
Аудио: AC3, 2 ch, 192 Кбит/с
Продолжительность: 2 х 01:05:00
Перевод: Не требуется [Русский]
Cубтитры: нет

Скриншоты

MediaInfo

General
Unique ID : 172932714853055398882330295147914342575 (0x8219A11FB3706E9F885E42C3D4C030AF)
Complete name : H:\шоу\Щас спою!.2019.WEB-DL 720p. Files-x\01. Щас спою!.2019.WEB-DL 720p. Files-x.mkv
Format : Matroska
File size : 1 018 MiB
Duration : 1h 4mn
Overall bit rate : 2 192 Kbps
Encoded date : UTC 2019-10-07 06:50:48
Writing application : mkvmerge v7.8.0 ('River Man') 32bit built on Apr 3 2015 12:11:22
Writing library : libebml v1.3.1 + libmatroska v1.4.2
Video
ID : 1
Format : AVC
Format/Info : Advanced Video Codec
Format profile : Main@L3.1
Format settings, CABAC : Yes
Format settings, ReFrames : 3 frames
Format settings, GOP : M=1, N=32
Codec ID : V_MPEG4/ISO/AVC
Duration : 1h 4mn
Bit rate : 1 957 Kbps
Width : 1 280 pixels
Height : 720 pixels
Display aspect ratio : 16:9
Frame rate mode : Variable
Frame rate : 25.000 fps
Color space : YUV
Chroma subsampling : 4:2:0
Bit depth : 8 bits
Scan type : Progressive
Bits/(Pixel*Frame) : 0.085
Stream size : 909 MiB (89%)
Color primaries : BT.709-5, BT.1361, IEC 61966-2-4, SMPTE RP177
Transfer characteristics : BT.709-5, BT.1361
Matrix coefficients : BT.709-5, BT.1361, IEC 61966-2-4 709, SMPTE RP177
Audio
ID : 2
Format : AC-3
Format/Info : Audio Coding 3
Mode extension : CM (complete main)
Codec ID : A_AC3
Duration : 1h 4mn
Bit rate mode : Constant
Bit rate : 192 Kbps
Channel(s) : 2 channels
Channel positions : Front: L R
Sampling rate : 44.1 KHz
Bit depth : 16 bits
Compression mode : Lossy
Delay relative to video : 9ms
Stream size : 89.2 MiB (9%)

Внимание! Раздача ведётся путём добавления новых серий

Раздача ведётся путём добавления новых серий, при каждом добавлении создаётся новый торрент. Чтобы начать докачку новой серии, пользователям необходимо сделать следующее:
- Остановить скачивание.
- Удалить старый торрент у себя из клиента (старые серии удалять не надо).
- Скачать новый торрент и запустить его у себя в клиенте вместо старого, при этом указать клиенту путь в старую папку куда и должно происходить скачивание новых серий.
Ваш клиент при этом должен произвести хеширование (проверку) старой папки (если не производит сам - помогите ему сделать это), и будет докачивать только те серии которых у вас ещё нет. Старые серии при этом не удаляются, а продолжают раздаваться!
Релиз от:


Last edited by papa1951deda on 2019-10-15 13:15; edited 8 times in total
[Profile] [PM]

papa1951deda ®

Gender: Male

Longevity: 10 months 29 days

Posts: 331

Location: Казахстан

Post 07-Oct-2019 14:52 (after 2 hours 19 minutes)

[Quote]

13830Эта раздача накопительная?
Да!
[Profile] [PM]

Starik60

Gender: Male

Longevity: 11 months 7 days

Posts: 171

Location: Москва, Россия

Post 07-Oct-2019 14:55 (after 2 minutes)

[Quote]

13834
13830Эта раздача накопительная?
Да!
Тогда нужно вставлять соответствующую вкладку.
Какое может быть HDTV 720р когда первый канал показывает 1080
[Profile] [PM]

papa1951deda ®

Gender: Male

Longevity: 10 months 29 days

Posts: 331

Location: Казахстан

Post 07-Oct-2019 15:41 (after 45 minutes)

[Quote]

Исправил ошибку
[Profile] [PM]
Display posts:    
Reply to topic

Current time is: 19-Oct 21:29

All times are UTC + 3



You cannot post new topics in this forum
You cannot reply to topics in this forum
You cannot edit your posts in this forum
You cannot delete your posts in this forum
You cannot vote in polls in this forum
You cannot attach files in this forum
You cannot download files in this forum