Маркус [1-8 серии из 8] (2019) WEBRip-AVC от Files-х

Reply to topic
 
Author Message

Серый1779 ®

Gender: Male

Longevity: 11 months 7 days

Posts: 623

Location: Украина

Post 08-Oct-2019 00:36

[Quote]

Маркус Год выпуска: 2019
Жанр: Детектив, мелодрама
Выпущено: Латвия, Украина, Helio Media, АРТ Територия
Режиссер: Антон Азаров
В ролях: Евгения Розанова, Кирилл Рубцов, Рихард Леперс, Александр Нейкенс, Лилия Ребрик, Агнесе Цируле, Ксения Мишина, Михаил Кукуюк, Ева Шевченко-Головко, Сергей Деньга
О фильме: В основе сюжета – история обычной учительницы Полины Клочко, жизнь которой кардинально изменил трагический случай, – когда из детского сада был похищен её сын Марк. Спустя несколько лет в рубрике международных новостей в репортаже об инциденте в Рижском торговом центре Полина узнает своего сына. Женщина обращается в полицию с просьбой возобновить дело о потере мальчика, но для этого у неё недостаточно оснований. Полина решает действовать своими силами, в результате чего судьба связывает её с майором в отставке и по совместительству отцом одной из её учениц – Денисом Денисовым. Помогая Полине в расследовании, бывший силовик замечает слишком много удивительных совпадений в подобных «делах» за последние 5 лет...
Качество: WEBRip-AVC
Видео: MPEG-4 AVC, ~ 1600 Кбит/с, 1024x576, 25 кадр/с
Аудио: AC3, 2 ch, 192 Кбит/с
Продолжительность: 8 х ~ 00:45:00
Перевод: Не требуется [Русский]
Cубтитры: нет

Скриншоты


MediaInfo

General
Unique ID : 183803501327514349726016292061580905012 (0x8A4744470A4C8E22BC620CEF3EE84A34)
Complete name : F:\Маркус.(2019).WEBRip.(AVC).Files-x\01.Маркус.(2019).WEBRip.(AVC).by.Серый1779.Files-x.mkv
Format : Matroska
Format version : Version 2
File size : 568 MiB
Duration : 44 min 17 s
Overall bit rate : 1 793 kb/s
Encoded date : UTC 2019-10-07 21:28:53
Writing application : mkvmerge v7.8.0 ('River Man') 32bit built on Apr 3 2015 12:11:22
Writing library : libebml v1.3.1 + libmatroska v1.4.2
Video
ID : 1
Format : AVC
Format/Info : Advanced Video Codec
Format profile : High@L4.1
Format settings : CABAC / 9 Ref Frames
Format settings, CABAC : Yes
Format settings, RefFrames : 9 frames
Codec ID : V_MPEG4/ISO/AVC
Duration : 44 min 17 s
Bit rate : 1 600 kb/s
Width : 1 024 pixels
Height : 576 pixels
Display aspect ratio : 16:9
Frame rate mode : Constant
Frame rate : 25.000 FPS
Color space : YUV
Chroma subsampling : 4:2:0
Bit depth : 8 bits
Scan type : Progressive
Bits/(Pixel*Frame) : 0.109
Stream size : 496 MiB (87%)
Writing library : x264 core 146 r2538 121396c
Encoding settings : cabac=1 / ref=9 / deblock=1:-2:-1 / analyse=0x3:0x133 / me=umh / subme=9 / psy=1 / psy_rd=1.00:0.15 / mixed_ref=1 / me_range=32 / chroma_me=1 / trellis=2 / 8x8dct=1 / cqm=0 / deadzone=21,11 / fast_pskip=0 / chroma_qp_offset=-3 / threads=18 / lookahead_threads=3 / sliced_threads=0 / nr=0 / decimate=1 / interlaced=0 / bluray_compat=0 / constrained_intra=0 / bframes=9 / b_pyramid=2 / b_adapt=2 / b_bias=0 / direct=1 / weightb=1 / open_gop=0 / weightp=2 / keyint=250 / keyint_min=25 / scenecut=40 / intra_refresh=0 / rc=2pass / mbtree=0 / bitrate=1600 / ratetol=1.0 / qcomp=0.60 / qpmin=0 / qpmax=69 / qpstep=4 / cplxblur=20.0 / qblur=0.5 / ip_ratio=1.40 / pb_ratio=1.30 / aq=2:1.00
Default : Yes
Forced : No
Color range : Limited
Color primaries : BT.709
Transfer characteristics : BT.709
Matrix coefficients : BT.709
Audio
ID : 2
Format : AC-3
Format/Info : Audio Coding 3
Format settings, Endianness : Big
Codec ID : A_AC3
Duration : 44 min 17 s
Bit rate mode : Constant
Bit rate : 192 kb/s
Channel(s) : 2 channels
Channel positions : Front: L R
Sampling rate : 48.0 kHz
Frame rate : 31.250 FPS (1536 SPF)
Bit depth : 16 bits
Compression mode : Lossy
Stream size : 60.8 MiB (11%)
Service kind : Complete Main
Default : Yes
Forced : No
Релиз от:
[Profile] [PM]
Display posts:    
Reply to topic

Current time is: 19-Oct 21:32

All times are UTC + 3



You cannot post new topics in this forum
You cannot reply to topics in this forum
You cannot edit your posts in this forum
You cannot delete your posts in this forum
You cannot vote in polls in this forum
You cannot attach files in this forum
You cannot download files in this forum