Голос. Перезагрузка [8 сезон: 1-5 выпуск из 13] (2019) WEBRip 720p

Reply to topic
 
Author Message

papa1951deda ®

Gender: Male

Longevity: 11 months

Posts: 384

Location: Казахстан

Post 12-Oct-2019 16:38

[Quote]

Голос. Перезагрузка Год выпуска: 2019
Жанр: ТВ-шоу, музыка
Выпущено: Россия, Первый канал, Красный квадрат, Talpa Productions
Ведущий: Дмитрий Нагиев
О фильме: В эфире Первого канала премьера нового сезона музыкального суперпроекта «Голос». Приемная комиссия изучила тысячи анкет, провела кастинг сотен вокалистов и отобрала 120 самых ярких из них для участия в знаменитых слепых прослушиваниях.
Качество: WEBRip 720p
Видео: MPEG-4 AVC, 3752 Кбит/с, 1280x720
Аудио: AC3, 2 ch, 192 Кбит/с
Продолжительность: 5 х ~ 01:40:00
Перевод / Озвучка: Не требуется [Русский]
Cубтитры: нет

Скриншоты


MediaInfo:

General
Unique ID: 215556644841353888197533482109177788264 (0xA22AB31F9D828AD0BB9F5AF50F857768)
Complete name: D:\моё видио\Голос страны .(Season 08)\01. Голос страны .8 Сезон. 2019.WEB-DL 720p.mkv
Format: Matroska
Format version: Version 2
File size: 2.96 GiB
Duration: 1h 45mn
Overall bit rate: 4 024 Kbps
Encoded date: UTC 2019-10-12 08:54:47
Writing application: mkvmerge v7.8.0 ('River Man') 32bit built on Apr 3 2015 12:11:22
Writing library: libebml v1.3.1 + libmatroska v1.4.2
Video
ID: 1
Format: AVC
Format/Info: Advanced Video Codec
Format profile: High@L3.1
Format settings, CABAC: Yes
Format settings, ReFrames: 4 frames
Codec ID: V_MPEG4/ISO/AVC
Duration: 1h 45mn
Bit rate: 3 752 Kbps
Width: 1 280 pixels
Height: 720 pixels
Display aspect ratio: 16:9
Frame rate mode: Constant
Frame rate: 25.000 fps
Color space: YUV
Chroma subsampling: 4:2:0
Bit depth: 8 bits
Scan type: Progressive
Bits/(Pixel*Frame): 0.163
Stream size: 2.76 GiB (93%)
Default: Yes
Forced: No
Audio
ID: 2
Format: AC-3
Format/Info: Audio Coding 3
Mode extension: CM (complete main)
Format settings, Endianness: Big
Codec ID: A_AC3
Duration: 1h 45mn
Bit rate mode: Constant
Bit rate: 192 Kbps
Channel(s): 2 channels
Channel positions: Front: L R
Sampling rate: 48.0 KHz
Bit depth: 16 bits
Compression mode: Lossy
Stream size: 144 MiB (5%)
Default: Yes
Forced: No

Внимание! Раздача ведётся путём добавления новых серий

Раздача ведётся путём добавления новых серий, при каждом добавлении создаётся новый торрент. Чтобы начать докачку новой серии, пользователям необходимо сделать следующее:
- Остановить скачивание.
- Удалить старый торрент у себя из клиента (старые серии удалять не надо).
- Скачать новый торрент и запустить его у себя в клиенте вместо старого, при этом указать клиенту путь в старую папку куда и должно происходить скачивание новых серий.
Ваш клиент при этом должен произвести хеширование (проверку) старой папки (если не производит сам - помогите ему сделать это), и будет докачивать только те серии которых у вас ещё нет. Старые серии при этом не удаляются, а продолжают раздаваться!


Last edited by papa1951deda on 2019-11-09 20:28; edited 4 times in total
[Profile] [PM]

Weqyz

Gender: Male

Longevity: 9 months 4 days

Posts: 3

Post 12-Oct-2019 22:23 (after 5 hours)

[Quote]

Причем тут Баста?
[Profile] [PM]

secure4

Gender: Male

Longevity: 8 months 25 days

Posts: 2

Post 13-Oct-2019 15:54 (after 17 hours)

[Quote]

13946Причем тут Баста?
Перезагрузка тоже не в тему
[Profile] [PM]
Display posts:    
Reply to topic

Current time is: 20-Nov 08:33

All times are UTC + 3



You cannot post new topics in this forum
You cannot reply to topics in this forum
You cannot edit your posts in this forum
You cannot delete your posts in this forum
You cannot vote in polls in this forum
You cannot attach files in this forum
You cannot download files in this forum