Трудные подростки [1-2 серии из 8] (2019) WEBRip

Reply to topic
 
Author Message

Nicodem ®

Gender: Male

Longevity: 1 year

Posts: 284

Post 24-Oct-2019 21:46

[Quote]

Трудные подростки
Год выпуска: 2019
Жанр: Драма, спортивный фильм
Выпущено: Россия, More Originals, PROSPECT, ООО КПМ Продакшн
Режиссер: Рустам Ильясов (II)
В ролях: Никита Волков, Александр Лыков, Григорий Калинин, Вильма Кутавичюте, Виталий Андреев, Глеб Калюжный, Анастасия Крылова, Тимофей Елецкий, Алёна Швиденкова, Владимир Гарцунов, Святослав Рогожан
О фильме: Популярный футболист Антон Ковалёв, отсидевший два года в тюрьме за пьяный дебош в кафе, выходит на свободу. Проступок перекрыл успешную карьеру Ковалёва, который ранее был капитаном сборной России. Репутация «сбитого летчика» не позволяет ему продолжить любимое дело и получить престижную работу. Некогда воспитывавший Антона глава центра трудных подростков Герман предлагает ему место в центре, чтобы подготовить непростых ребят к местной Олимпиаде. От безысходности Ковалев соглашается на предложение, но даже не представляет, насколько сложно будет найти общий язык с ребятами и какое важное место они могут занять в его жизни.

Качество: WEBRip
Видео: XviD, ~ 1500 Кбит/с, 720x400, 25 кадр/с
Аудио: AC3, 2 ch, 192 Кбит/с
Продолжительность: 2 x ~ 00:25:00
Перевод: Не требуется

Скриншоты


MediaInfo

General
Complete name : C:Trudnye.podrostki.e01.WEB-DLRip.25Kuzmich.avi
Format : AVI
Format/Info : Audio Video Interleave
File size : 300 MiB
Duration : 25mn 51s
Overall bit rate : 1 620 Kbps
Writing application : VirtualDubMod 1.5.10.3 | www.virtualdub-fr.org || (build 2550/release)
Writing library : VirtualDubMod build 2550/release
Video
ID : 0
Format : MPEG-4 Visual
Format profile : Advanced Simple@L5
Format settings, BVOP : 1
Format settings, QPel : No
Format settings, GMC : No warppoints
Format settings, Matrix : Default (MPEG)
Codec ID : XVID
Codec ID/Hint : XviD
Duration : 25mn 51s
Bit rate : 1 418 Kbps
Width : 720 pixels
Height : 400 pixels
Display aspect ratio : 16:9
Frame rate : 25.000 fps
Color space : YUV
Chroma subsampling : 4:2:0
Bit depth : 8 bits
Scan type : Progressive
Compression mode : Lossy
Bits/(Pixel*Frame) : 0.197
Stream size : 262 MiB (88%)
Writing library : XviD 73
Audio
ID : 1
Format : AC-3
Format/Info : Audio Coding 3
Mode extension : CM (complete main)
Codec ID : 2000
Duration : 25mn 51s
Bit rate mode : Constant
Bit rate : 192 Kbps
Channel(s) : 2 channels
Channel positions : Front: L R
Sampling rate : 48.0 KHz
Bit depth : 16 bits
Compression mode : Lossy
Stream size : 35.5 MiB (12%)
Alignment : Split accross interleaves
Interleave, duration : 40 ms (1.00 video frame)
Interleave, preload duration : 500 ms

Раздача ведётся путём добавления новых серий

Внимание! Раздача ведётся путём добавления новых серий; при каждом добавлении создаётся новый торрент.
Чтобы начать докачку новой серии, пользователям необходимо сделать следующее:
1. Остановить скачивание;
2. Удалить старый торрент у себя из клиента (старые серии удалять не надо);
3. Скачать новый торрент и запустить его у себя в клиенте вместо старого, при этом указать клиенту путь в старую папку куда и должно происходить скачивание новых серий. Ваш клиент при этом должен произвести хеширование (проверку) старой папки и будет докачивать только те серии, которых у вас ещё нет. Старые серии при этом не удаляются, а продолжают раздаваться! Eсли вы уже удалили старые серии, то предотвратить повторную закачку старых серий можно, отжав галочку в соответствующих местах при запуске нового торрента.
Релиз от:
[Profile] [PM]

Серый1779

Gender: Male

Longevity: 1 year

Posts: 693

Location: Украина

Post 24-Oct-2019 22:01 (after 14 minutes)

[Quote]

Увы! Повтор! http://generalfilm.website/viewtopic.php?t=13429
[Profile] [PM]
Display posts:    
Reply to topic

Current time is: 20-Nov 08:35

All times are UTC + 3



You cannot post new topics in this forum
You cannot reply to topics in this forum
You cannot edit your posts in this forum
You cannot delete your posts in this forum
You cannot vote in polls in this forum
You cannot attach files in this forum
You cannot download files in this forum