Охотники за караванами [1-4 серия из 4] (2010) HDTVRip 720p от Files-x

Reply to topic
 
Author Message

Серый1779 ®

Gender: Male

Longevity: 8 months 4 days

Posts: 486

Location: Украина

Post 02-Dec-2018 23:28

[Quote]

Охотники за караванами Год выпуска: 2010
Жанр: Военный
Выпущено: 4К по заказу Star Media
Режиссёр: Сергей Чекалов
В ролях: Алексей Серебряков, Андрей Саминин, Алексей Лонгин, Всеволод Хованский-Померанцев, Карина Андоленко, Евгения Лютая, Владимир Смирнов, Михаил Тарабукин, Иван Шибанов, Никита Емшанов
О фильме: Афганистан. 1986 год. Появившиися у моджахедов переносные зенитные комплексы "Стингер" грозят положить конец господству в воздухе советской авиации. Командир разведбата майор Оковалков получает задание добыть образец этого нового оружия. Для этого ему необходимо захватить небольшой караван. Однако караван оказывается огромным, с хорошо вооруженной охраной. Поняв, что операция провалена, Оковалко принимает решение переждать прохождение колонны и вернуться в часть, но его планы нарушает автоматная очередь, случайно выпущенная молодым неопытным солдатом...
Качество: SATRip-AVC
Видео: MPEG 4 AVC, ~ 3391 Кбит/с, 1280х720, 25 кадр/с
Аудио: MP2, 2 ch, 192 Кбит/с
Продолжительность: 4 x ~ 00:48:00
Перевод: Не требуется
Субтитры: Нет

Скриншоты


MediaInfo

Общее
Уникальный идентификатор : 205111429948149518230007609826844999256 (0x9A4F0644CD19BE738EE47F6ED27DFE58)
Полное имя : H:\ФИЛЬМЫ\Охотники за караванами HDTVRip 720p\Охотники за караванами 01_серия_HDTVRip 720 p_by_Серый1779.mkv
Формат : Matroska
Версия формата : Version 2
Размер файла : 1,21 Гбайт
Продолжительность : 48 м.
Общий поток : 3585 Кбит/сек
Дата кодирования : UTC 2013-03-03 22:58:29
Программа кодирования : mkvmerge v4.9.1 ('Ich will') built on Sep 21 2011 17:48:11
Библиотека кодирования : libebml v1.2.1 libmatroska v1.2.0
Видео
Идентификатор : 1
Формат : AVC
Формат/Информация : Advanced Video Codec
Профиль формата : High@L5.0
Параметр CABAC формата : Да
Параметр ReFrames формата : 10 кадров
Идентификатор кодека : V_MPEG4/ISO/AVC
Продолжительность : 48 м.
Битрейт : 3322 Кбит/сек
Ширина : 1280 пикселей
Высота : 720 пикселей
Соотношение сторон : 16:9
Режим частоты кадров : Постоянный
Частота кадров : 25,000 кадров/сек
Цветовое пространство : YUV
Субдискретизация насыщенности : 4:2:0
Битовая глубина : 8 бит
Тип развёртки : Прогрессивная
Бит/(Пиксели*Кадры) : 0.144
Размер потока : 1,12 Гбайт (93%)
Библиотека кодирования : x264 core 118 r2085 8a62835
Настройки программы : cabac=1 / ref=10 / deblock=1:-3:-3 / analyse=0x3:0x133 / me=umh / subme=9 / psy=1 / psy_rd=1.00:0.15 / mixed_ref=1 / me_range=32 / chroma_me=1 / trellis=2 / 8x8dct=1 / cqm=0 / deadzone=21,11 / fast_pskip=0 / chroma_qp_offset=-3 / threads=3 / sliced_threads=0 / nr=0 / decimate=1 / interlaced=0 / bluray_compat=0 / constrained_intra=0 / bframes=10 / b_pyramid=2 / b_adapt=2 / b_bias=0 / direct=1 / weightb=1 / open_gop=0 / weightp=2 / keyint=250 / keyint_min=25 / scenecut=40 / intra_refresh=0 / rc=crf / mbtree=0 / crf=20.0 / qcomp=0.60 / qpmin=0 / qpmax=69 / qpstep=4 / ip_ratio=1.40 / pb_ratio=1.30 / aq=2:0.70
Default : Да
Forced : Нет
Основные цвета : BT.601 PAL
Характеристики трансфера : BT.470 System B, BT.470 System G
Коэффициенты матрицы : BT.601
Аудио
Идентификатор : 2
Формат : MPEG Audio
Версия формата : Version 1
Профиль формата : Layer 2
Идентификатор кодека : A_MPEG/L2
Идентификатор кодека/Подсказка : MP2
Продолжительность : 48 м.
Вид битрейта : Постоянный
Битрейт : 192 Кбит/сек
Каналы : 2 канала
Частота : 48,0 КГц
Метод сжатия : С потерями
Размер потока : 66,2 Мбайт (5%)
Default : Да
Forced : Нет

h264 log

x264 [info]: frame I:562 Avg QP:19.11 size:109541
x264 [info]: frame P:19504 Avg QP:20.72 size: 34796
x264 [info]: frame B:52274 Avg QP:23.18 size: 9304
x264 [info]: consecutive B-frames: 3.5% 2.8% 7.3% 70.7% 6.2% 6.5% 1.1% 1.2% 0.4% 0.2% 0.0%
x264 [info]: mb I I16..4: 8.1% 78.4% 13.6%
x264 [info]: mb P I16..4: 1.2% 8.7% 1.0% P16..4: 55.4% 21.2% 6.0% 0.8% 0.2% skip: 5.5%
x264 [info]: mb B I16..4: 0.1% 0.9% 0.1% B16..8: 36.0% 7.5% 2.1% direct: 5.1% skip:48.0% L0:34.2% L1:50.9% BI:14.9%
x264 [info]: 8x8 transform intra:79.2% inter:59.9%
x264 [info]: coded y,uvDC,uvAC intra: 83.5% 82.7% 43.4% inter: 21.4% 21.0% 0.9%
x264 [info]: i16 v,h,dc,p: 25% 15% 8% 52%
x264 [info]: i8 v,h,dc,ddl,ddr,vr,hd,vl,hu: 12% 11% 5% 8% 13% 14% 13% 12% 13%
x264 [info]: i4 v,h,dc,ddl,ddr,vr,hd,vl,hu: 12% 9% 3% 8% 15% 15% 14% 12% 13%
x264 [info]: i8c dc,h,v,p: 33% 24% 23% 20%
x264 [info]: Weighted P-Frames: Y:3.4% UV:1.9%
x264 [info]: ref P L0: 53.5% 14.1% 18.6% 3.4% 3.2% 1.9% 2.0% 1.0% 1.1% 1.0% 0.1% 0.0%
x264 [info]: ref B L0: 87.8% 7.5% 1.8% 1.0% 0.6% 0.5% 0.4% 0.3% 0.1%
x264 [info]: ref B L1: 97.2% 2.8%
x264 [info]: kb/s:3391.11
x264 [total]: encoded 72340 frames, 2.13 fps, 3391.11 kb/s
Релиз от:
[Profile] [PM]
Display posts:    
Reply to topic

Current time is: 17-Jul 10:41

All times are UTC + 3



You cannot post new topics in this forum
You cannot reply to topics in this forum
You cannot edit your posts in this forum
You cannot delete your posts in this forum
You cannot vote in polls in this forum
You cannot attach files in this forum
You cannot download files in this forum