Элефант (2019) WEB-DLRip от GeneralFilm | iTunes

Reply to topic
 
Author Message

vsobbol ®

Gender: Male

Longevity: 1 year

Posts: 344

Location: Донецк

Post 06-Nov-2019 19:07

[Quote]

Элефант
Год выпуска: 2019
Жанр: Комедия
Выпущено: Россия, Кинокомпания 58,5 Продакшн, Кинокомпания СТВ
Режиссер: Алексей Красовский
В ролях: Алексей Гуськов, Полина Агуреева, Евгения Дмитриева, Ян Цапник, Фредерик Бегбедер, Алиса Мынай, Ингрид Олеринская, Геннадий Смирнов, Игорь Хрипунов, Сергей Колос, Юлия Топольницкая, Надежда Толубеева, Михаил Касапов, Алиса Слепян, Максим Белбородов, Ольга Кирсанова-Миропольская, Полина Войченко
О фильме: У добрых книжек про Слона Мишку был очень злобный автор. И, даже когда Валентину Шубину из-за болезни пересадили новое сердце, он предпочел, чтобы все прочее оставалось старым. Шубин давно развелся с женой и поссорился с дочерью, ради которой когда-то писал свои истории. Но писать продолжение он не хочет, тем более, в компании навязанной ему приставучей сиделки. Хуже которой лишь то, что теперь у Шубина в самый неподходящий момент непроизвольно текут слезы…
Качество: WEB-DLRip
Видео: XviD build 73, 720x304 (2.37:1), 25.000 fps, 1237 Kbps (0.226 bit/pixel)
Аудио: 48.0 kHz, MP3, 2/0 ch, 128 kbps
Продолжительность: 01:15:46
Перевод: Не требуется [Русский]
Cубтитры: нет

Скриншоты

MediaInfo

General
Complete name : D:\Razdachi\Elefant.2019.WEB-DLRip.GeneralFilm.avi
Format : AVI
Format/Info : Audio Video Interleave
File size : 745 MiB
Duration : 1 h 15 min
Overall bit rate : 1 375 kb/s
Writing application : VirtualDubMod 1.5.10.3 | www.virtualdub-fr.org || (build 2550/release)
Writing library : VirtualDubMod build 2550/release
Video
ID : 0
Format : MPEG-4 Visual
Format profile : Advanced Simple@L5
Format settings : BVOP1 / Custom Matrix
Format settings, BVOP : 1
Format settings, QPel : No
Format settings, GMC : No warppoints
Format settings, Matrix : Custom
Codec ID : XVID
Codec ID/Hint : XviD
Duration : 1 h 15 min
Bit rate : 1 237 kb/s
Width : 720 pixels
Height : 304 pixels
Display aspect ratio : 2.35:1
Frame rate : 25.000 FPS
Color space : YUV
Chroma subsampling : 4:2:0
Bit depth : 8 bits
Scan type : Progressive
Compression mode : Lossy
Bits/(Pixel*Frame) : 0.226
Stream size : 670 MiB (90%)
Writing library : XviD 73
Audio
ID : 1
Format : MPEG Audio
Format version : Version 1
Format profile : Layer 3
Codec ID : 55
Codec ID/Hint : MP3
Duration : 1 h 15 min
Bit rate mode : Constant
Bit rate : 128 kb/s
Channel(s) : 2 channels
Sampling rate : 48.0 kHz
Frame rate : 41.667 FPS (1152 SPF)
Compression mode : Lossy
Stream size : 69.4 MiB (9%)
Alignment : Aligned on interleaves
Interleave, duration : 40 ms (1.00 video frame)
Interleave, preload duratio : 504 ms
Writing library : LAME3.99r
Encoding settings : -m s -V 4 -q 2 -lowpass 17 -b 128
Релиз от:
[Profile] [PM]
Display posts:    
Reply to topic

Current time is: 20-Nov 08:35

All times are UTC + 3



You cannot post new topics in this forum
You cannot reply to topics in this forum
You cannot edit your posts in this forum
You cannot delete your posts in this forum
You cannot vote in polls in this forum
You cannot attach files in this forum
You cannot download files in this forum