Присягнувшая тьме / The Convent (2018) BDRip 720p | iTunes

Reply to topic
 
Author Message

Monk ®

Gender: Male

Longevity: 1 year

Posts: 9115

Location: Казань

Post 07-Nov-2019 10:54

[Quote]

Присягнувшая тьме / The Convent Год выпуска: 2018
Жанр: Ужасы, история
Выпущено: Великобритания, EnMar Productions, BCSM Enterprises, Sterling Pictures Ltd.
Режиссер: Пол Хайет
В ролях: Майкл Айронсайд, Рози Дэй, Клер Хиггинс, Ханна Артертон, Дилан Гвин, Киаран МакМенамин, Аня Марсон, Фредди Картер, Петра Брайант, Кэти Шеридан
О фильме: В начале XVII века молодая женщина Персефона по ложному обвинению предстает перед судом, а после - и перед возможной казнью. Но девушку спасает вовремя вмешавшаяся преподобная мать, предложив осужденной провести оставшуюся жизнь в изолированном монастыре. Персефона думала, что в святом месте она посвятит себя молитвам и служению Господу, но по прибытии её начинают мучить страшные видения, а вместо очищения от грехов девушку ждет борьба за сохранение души.
Качество: BDRip 720p
Видео: MPEG-4 AVC, 4034 Кбит/с, 1280x536, 24 кадр/с
Аудио: Русский (AC3, 6 ch, 384 Кбит/с), (AC3, 2 ch, 192 Кбит/с), английский (DTS, 6 ch, 1509 Кбит/с)
Продолжительность: 01:20:55
Перевод: Дублированный [iTunes], профессиональный многоголосый [HDRezka Studio]
Субтитры: Английские

Скриншоты



MediaInfo

Общее
Уникальный идентификатор : 188030196391005991712003867706653395378 (0x8D754C6EF13A6E09B6F7123A79ABC9B2)
Полное имя : D:\Загрузки\The.Convent.2018.x264.BDRip.(720p).OlLanDGroup.mkv
Формат : Matroska
Версия формата : Version 4 / Version 2
Размер файла : 3,46 Гбайт
Продолжительность : 1 ч. 20 м.
Общий поток : 6116 Кбит/сек
Название фильма : Присягнувшая тьме.2018.Rip by: ollan
Дата кодирования : UTC 2019-11-06 19:44:11
Программа кодирования : mkvmerge v6.5.0 ('Isn't she lovely') built on Oct 20 2013 12:50:05
Библиотека кодирования : libebml v1.3.0 + libmatroska v1.4.1
Обложка : Yes
Attachments : Cover - The.Convent..png
Видео
Идентификатор : 1
Формат : AVC
Формат/Информация : Advanced Video Codec
Профиль формата : High@L4.1
Настройки формата : CABAC / 10 Ref Frames
Параметр CABAC формата : Да
Параметр ReFrames формата : 10 кадров
Идентификатор кодека : V_MPEG4/ISO/AVC
Продолжительность : 1 ч. 20 м.
Битрейт : 4034 Кбит/сек
Ширина : 1280 пикселей
Высота : 536 пикселей
Соотношение сторон : 2,40:1
Режим частоты кадров : Постоянный
Частота кадров : 24,000 кадра/сек
Цветовое пространство : YUV
Субдискретизация насыщенности : 4:2:0
Битовая глубина : 8 бит
Тип развёртки : Прогрессивная
Бит/(Пиксели*Кадры) : 0.245
Размер потока : 2,21 Гбайт (64%)
Библиотека кодирования : x264 core 146 r2538 121396c
Настройки программы : cabac=1 / ref=10 / deblock=1:-3:-3 / analyse=0x3:0x133 / me=umh / subme=11 / psy=1 / psy_rd=0.95:0.05 / mixed_ref=1 / me_range=64 / chroma_me=1 / trellis=2 / 8x8dct=1 / cqm=0 / deadzone=21,11 / fast_pskip=0 / chroma_qp_offset=-3 / threads=12 / lookahead_threads=3 / sliced_threads=0 / nr=0 / decimate=0 / interlaced=0 / bluray_compat=0 / constrained_intra=0 / bframes=10 / b_pyramid=2 / b_adapt=2 / b_bias=0 / direct=3 / weightb=1 / open_gop=0 / weightp=2 / keyint=240 / keyint_min=23 / scenecut=40 / intra_refresh=0 / rc_lookahead=40 / rc=2pass / mbtree=0 / bitrate=4034 / ratetol=1.0 / qcomp=0.60 / qpmin=0 / qpmax=69 / qpstep=4 / cplxblur=20.0 / qblur=0.5 / vbv_maxrate=50000 / vbv_bufsize=62500 / nal_hrd=none / filler=0 / ip_ratio=1.40 / pb_ratio=1.30 / aq=1:1.00
Язык : English
Default : Да
Forced : Нет
Аудио #1
Идентификатор : 2
Формат : AC-3
Формат/Информация : Audio Coding 3
Идентификатор кодека : A_AC3
Продолжительность : 1 ч. 20 м.
Вид битрейта : Постоянный
Битрейт : 384 Кбит/сек
Каналы : 6 каналов
Расположение каналов : Front: L C R, Side: L R, LFE
Частота : 48,0 КГц
Частота кадров : 31,250 кадров/сек (1536 SPF)
Битовая глубина : 16 бит
Метод сжатия : С потерями
Размер потока : 222 Мбайт (6%)
Заголовок : iTunes
Язык : Russian
Service kind : Complete Main
Default : Да
Forced : Нет
Аудио #2
Идентификатор : 3
Формат : AC-3
Формат/Информация : Audio Coding 3
Идентификатор кодека : A_AC3
Продолжительность : 1 ч. 20 м.
Вид битрейта : Постоянный
Битрейт : 192 Кбит/сек
Каналы : 2 канала
Расположение каналов : Front: L R
Частота : 48,0 КГц
Частота кадров : 31,250 кадров/сек (1536 SPF)
Битовая глубина : 16 бит
Метод сжатия : С потерями
Размер потока : 111 Мбайт (3%)
Заголовок : HDRezka Studio
Язык : Russian
Service kind : Complete Main
Default : Нет
Forced : Нет
Аудио #3
Идентификатор : 4
Формат : DTS
Формат/Информация : Digital Theater Systems
Идентификатор кодека : A_DTS
Продолжительность : 1 ч. 20 м.
Вид битрейта : Постоянный
Битрейт : 1509 Кбит/сек
Каналы : 6 каналов
Расположение каналов : Front: L C R, Side: L R, LFE
Частота : 48,0 КГц
Частота кадров : 93,750 кадра/сек (512 SPF)
Битовая глубина : 24 бит
Метод сжатия : С потерями
Размер потока : 873 Мбайт (25%)
Язык : English
Default : Нет
Forced : Нет
Текст
Идентификатор : 5
Формат : UTF-8
Идентификатор кодека : S_TEXT/UTF8
Идентификатор кодека/Информация : UTF-8 Plain Text
Заголовок : Full
Язык : English
Default : Нет
Forced : Нет
Меню
00:00:00.000 : en:Chapter 01
00:03:23.625 : en:Chapter 02
00:06:46.250 : en:Chapter 03
00:10:47.208 : en:Chapter 04
00:18:16.458 : en:Chapter 05
00:23:40.208 : en:Chapter 06
00:30:33.666 : en:Chapter 07
00:35:41.125 : en:Chapter 08
00:40:23.458 : en:Chapter 09
00:45:32.250 : en:Chapter 10
00:52:03.125 : en:Chapter 11
00:55:23.041 : en:Chapter 12
01:00:38.458 : en:Chapter 13
01:06:31.541 : en:Chapter 14
01:11:43.583 : en:Chapter 15
01:16:52.041 : en:Chapter 16
[Profile] [PM]
Display posts:    
Reply to topic

Current time is: 20-Nov 08:34

All times are UTC + 3



You cannot post new topics in this forum
You cannot reply to topics in this forum
You cannot edit your posts in this forum
You cannot delete your posts in this forum
You cannot vote in polls in this forum
You cannot attach files in this forum
You cannot download files in this forum