Человек и закон [эфир 08.11] (2019) SATRip от GeneralFilm

Reply to topic
 
Author Message

Starik60 ®

Gender: Male

Longevity: 1 year

Posts: 184

Location: Москва, Россия

Post 08-Nov-2019 12:29

[Quote]

Человек и закон
Год выпуска: 2019
Жанр: Документальный, расследование
Выпущено: Россия, Телекомпания "Останкино"
Режиссер: Денис Пиманов
Ведущий: Алексей Пиманов
О фильме: Общественно-политическая программа "Человек и закон" выходит на главном телеканале страны уже 35 лет (Алексей Пиманов ведет программу с 1996 года). Столь "преклонный возраст" ничуть не мешает программе оставаться одной из самых востребованных и актуальных на отечественном телевидении. Быть может потому, что основные темы - борьба с организованной преступностью, расследования о коррупции в высших эшелонах власти, криминальные истории…
Официальный сайт
Качество: SATRip
Видео: XviD, 1600 Кбит/с, 720x400
Аудио: AC3, 2 ch, 192 Кбит/с
Продолжительность: 00:51:00
Перевод: Не требуется

Скриншоты



MediaInfo


General
Complete name : G:\Temp\Человек и закон 08.11.2019.GeneralFilm.avi
Format : AVI
Format/Info : Audio Video Interleave
File size : 632 MiB
Duration : 49 min 3 s
Overall bit rate : 1 802 kb/s
Writing application : VirtualDubMod 1.5.10.3 | www.virtualdub-fr.org || (build 2550/release)
Writing library : VirtualDubMod build 2550/release
Video
ID : 0
Format : MPEG-4 Visual
Format profile : Advanced Simple@L5
Format settings : BVOP1 / Custom Matrix
Format settings, BVOP : 1
Format settings, QPel : No
Format settings, GMC : No warppoints
Format settings, Matrix : Custom
Codec ID : XVID
Codec ID/Hint : XviD
Duration : 49 min 3 s
Bit rate : 1 600 kb/s
Width : 720 pixels
Height : 400 pixels
Display aspect ratio : 16:9
Frame rate : 25.000 FPS
Color space : YUV
Chroma subsampling : 4:2:0
Bit depth : 8 bits
Scan type : Progressive
Compression mode : Lossy
Bits/(Pixel*Frame) : 0.222
Stream size : 561 MiB (89%)
Writing library : XviD 73
Audio
ID : 1
Format : AC-3
Format/Info : Audio Coding 3
Commercial name : Dolby Digital
Codec ID : 2000
Duration : 49 min 3 s
Bit rate mode : Constant
Bit rate : 192 kb/s
Channel(s) : 2 channels
Channel layout : L R
Sampling rate : 48.0 kHz
Frame rate : 31.250 FPS (1536 SPF)
Bit depth : 16 bits
Compression mode : Lossy
Stream size : 67.4 MiB (11%)
Alignment : Split accross interleaves
Interleave, duration : 40 ms (1.00 video frame)
Interleave, preload duratio : 500 ms
Service kind : Complete Main

Содержание


Такси легальные, серые и откровенно криминальные. Этой теме программа посвятила не одно журналистское расследование. Потому что это напрямую касается нашей безопасности. На неделе снова заговорили о такси и на законодательном уровне. Мол, не слишком ли много их развелось на наших улицах? Не пора ли вводить новые лицензии и ограничения? В ответ тут же понеслись угрозы взвинтить цены и вернуть черный рынок. Чтобы не быть голословными, корреспонденты программы специально напросились в рейды с сотрудниками ГИБДД Москвы.
Тайна смерти звезд и поклонники, которые никогда ничему до конца не верят: не может такой человек вот так просто взять и умереть! То ли дело всевозможные теории заговора! А все началось с информации о том, что спустя почти 30 лет со дня странной гибели Виктора Цоя возобновили следствие по уголовному делу. Питерские эксперты расскажут, к каким выводам и заключениям пришли. Владимир Высоцкий, Алексей Панин, Майкл Джексон и Мэрилин Монро, Леди Диана, Гитлер, Борис Березовский, Эми Уайнхаус, Уитни Хьюстон, Курт Кобейн, Честер Беннингтон и «Клуб 27»… Историко-культурное расследование.
Технология обмана: «Мошенники с большой дороги». Актриса Татьяна Высоцкая лишилась дорогого кольца — за то, чтобы ее избавили от сглаза. Таксист из Твери собственными руками отдал «хорошим людям» — цыганке с загадочным именем Аргентина — 8 млн рублей, чтобы сняли «порчу». Методы НЛП, помноженные на природную способность видеть и замечать любую мелочь, а также психологически очень точно чувствовать потенциального «клиента», — вот оружие современных мошенников. Капкан, в который легко попасть и из которого практически невозможно выбраться.
Кто нас охраняет? За сколько, от кого и почему. Москва. Исповедь охранника. «Я один на дежурстве, а должно быть двое. Видеокамеры есть, только не работают почему-то. Система оповещения на случай пожара тоже есть, но смонтирована так, будто ее и нет. Не спасет никого, не надейтесь!» Нарьян-Мар. Психа, который зарезал в детском саду «Солнышко» шестилетнего ребенка, отправили на комплексную психолого-психиатрическую экспертизу. Охранник, который даже с места не сдвинулся, открывая дверь в преисподнюю, тоже арестован. Но кто на самом деле виноват? И что теперь делать? В тех же детсадах и школах? Наше расследование.
Релиз от:
[Profile] [PM]
Display posts:    
Reply to topic

Current time is: 20-Nov 08:35

All times are UTC + 3



You cannot post new topics in this forum
You cannot reply to topics in this forum
You cannot edit your posts in this forum
You cannot delete your posts in this forum
You cannot vote in polls in this forum
You cannot attach files in this forum
You cannot download files in this forum