Лидия (2018) HDTVRip от GeneralFilm

Reply to topic
 
Author Message

vsobbol ®

Gender: Male

Longevity: 1 year

Posts: 369

Location: Донецк

Post 17-Nov-2019 15:03

[Quote]

Лидия
Год выпуска: 2018
Жанр: Мелодрама
Выпущено: Россия, «Паламеда Продакшн»
Режиссер: Пётр Степин
В ролях: Мария Куликова, Алексей Фатеев, Анна Мареева, Эрик Абрамов, Сергей Пукита
О фильме: Лидия Никитина в жизни всего добилась сама. Одна воспитывала дочь, и одна поднимала бизнес с нуля. Теперь она владеет небольшой сетью кондитерских. За Лидией, конечно, ухаживают мужчины, но она не видит среди них никого, с кем бы могла связать свою жизнь. Всю себя она посвящает своей дочери Тане. Но в последнее время Таня все чаще ссорится с матерью из-за своего мужа Артема, которого Лида считает бездельником и разгильдяем. Он тоже надеется открыть собственный бизнес, правда не без финансовой помощи тещи. Внезапно при обследовании у Лиды обнаружилась тяжелая болезнь…
Качество: HDTVRip
Видео: XviD build 73, 720x400 (16:9), 25.000 fps, 1659 Kbps (0.230 bit/pixel)
Аудио: 48.0 kHz, AC3, 2/0 ch, 192 kbps
Продолжительность: 01:45:16
Перевод: Не требуется [Русский]
Cубтитры: нет

Скриншоты

MediaInfo

General
Complete name : D:\Razdachi\Lidija.2018.HDTVRip.GeneralFilm.avi
Format : AVI
Format/Info : Audio Video Interleave
File size : 1.37 GiB
Duration : 1 h 45 min
Overall bit rate : 1 861 kb/s
Writing application : VirtualDubMod 1.5.10.3 | www.virtualdub-fr.org || (build 2550/release)
Writing library : VirtualDubMod build 2550/release
Video
ID : 0
Format : MPEG-4 Visual
Format profile : Advanced Simple@L5
Format settings : BVOP1 / Custom Matrix
Format settings, BVOP : 1
Format settings, QPel : No
Format settings, GMC : No warppoints
Format settings, Matrix : Custom
Codec ID : XVID
Codec ID/Hint : XviD
Duration : 1 h 45 min
Bit rate : 1 659 kb/s
Width : 720 pixels
Height : 400 pixels
Display aspect ratio : 16:9
Frame rate : 25.000 FPS
Color space : YUV
Chroma subsampling : 4:2:0
Bit depth : 8 bits
Scan type : Progressive
Compression mode : Lossy
Bits/(Pixel*Frame) : 0.230
Stream size : 1.22 GiB (89%)
Writing library : XviD 73
Audio
ID : 1
Format : AC-3
Format/Info : Audio Coding 3
Commercial name : Dolby Digital
Codec ID : 2000
Duration : 1 h 45 min
Bit rate mode : Constant
Bit rate : 192 kb/s
Channel(s) : 2 channels
Channel layout : L R
Sampling rate : 48.0 kHz
Frame rate : 31.250 FPS (1536 SPF)
Compression mode : Lossy
Stream size : 145 MiB (10%)
Alignment : Split across interleaves
Interleave, duration : 40 ms (1.00 video frame)
Interleave, preload duratio : 500 ms
Service kind : Complete Main
Релиз от:
[Profile] [PM]
Display posts:    
Reply to topic

Current time is: 14-Dec 12:08

All times are UTC + 3



You cannot post new topics in this forum
You cannot reply to topics in this forum
You cannot edit your posts in this forum
You cannot delete your posts in this forum
You cannot vote in polls in this forum
You cannot attach files in this forum
You cannot download files in this forum