Человек и закон [эфир 29.11] (2019) SATRip от GeneralFilm

Reply to topic
 
Author Message

Starik60 ®

Gender: Male

Longevity: 1 year 1 month

Posts: 192

Location: Москва, Россия

Post 29-Nov-2019 13:11

[Quote]

Человек и закон
Год выпуска: 2019
Жанр: Документальный, расследование
Выпущено: Россия, Телекомпания "Останкино"
Режиссер: Денис Пиманов
Ведущий: Алексей Пиманов
О фильме: Общественно-политическая программа "Человек и закон" выходит на главном телеканале страны уже 35 лет (Алексей Пиманов ведет программу с 1996 года). Столь "преклонный возраст" ничуть не мешает программе оставаться одной из самых востребованных и актуальных на отечественном телевидении. Быть может потому, что основные темы - борьба с организованной преступностью, расследования о коррупции в высших эшелонах власти, криминальные истории…
Официальный сайт
Качество: SATRip
Видео: XviD, 1600 Кбит/с, 720x400
Аудио: AC3, 2 ch, 192 Кбит/с
Продолжительность: 00:51:00
Перевод: Не требуется

Скриншоты



MediaInfo


General
Complete name : G:\Temp\Человек и закон 29.11.2019.GeneralFilm.avi
Format : AVI
Format/Info : Audio Video Interleave
File size : 632 MiB
Duration : 49 min 3 s
Overall bit rate : 1 802 kb/s
Writing application : VirtualDubMod 1.5.10.3 | www.virtualdub-fr.org || (build 2550/release)
Writing library : VirtualDubMod build 2550/release
Video
ID : 0
Format : MPEG-4 Visual
Format profile : Advanced Simple@L5
Format settings : BVOP1 / Custom Matrix
Format settings, BVOP : 1
Format settings, QPel : No
Format settings, GMC : No warppoints
Format settings, Matrix : Custom
Codec ID : XVID
Codec ID/Hint : XviD
Duration : 49 min 3 s
Bit rate : 1 600 kb/s
Width : 720 pixels
Height : 400 pixels
Display aspect ratio : 16:9
Frame rate : 25.000 FPS
Color space : YUV
Chroma subsampling : 4:2:0
Bit depth : 8 bits
Scan type : Progressive
Compression mode : Lossy
Bits/(Pixel*Frame) : 0.222
Stream size : 561 MiB (89%)
Writing library : XviD 73
Audio
ID : 1
Format : AC-3
Format/Info : Audio Coding 3
Commercial name : Dolby Digital
Codec ID : 2000
Duration : 49 min 3 s
Bit rate mode : Constant
Bit rate : 192 kb/s
Channel(s) : 2 channels
Channel layout : L R
Sampling rate : 48.0 kHz
Frame rate : 31.250 FPS (1536 SPF)
Bit depth : 16 bits
Compression mode : Lossy
Stream size : 67.4 MiB (11%)
Alignment : Split accross interleaves
Interleave, duration : 40 ms (1.00 video frame)
Interleave, preload duratio : 500 ms
Service kind : Complete Main

Содержание


Правовой дайджест надели. Сенсационное признание экс-министра юстиции Украины Елены Лукаш о том, как убивали бойцов Беркута на Майдане. О том, что в списке героев «Небесной сотни» значатся люди, погибшие вовсе не от пуль во время расстрела в центре Киева. Иркутск, бывший влюбленный изрезал женщину. Похожее преступление произошло в Москве. В Госдуме заговорили о том, что статью о самообороне давно пора пересматривать. Еще один миллиард рублей Генеральная прокуратура нашла у бывшего главы Серпуховского района Александра Шестуна. И снова Иркутск, парнишка спас девочку от педофила-рецидивиста. Москва. Драка дворников стенка на стенку (50 человек) из-за матча Киргизия — Узбекистан, драка за место для парковки. Якутск, замдиректора школы тоже подрался. С дворником из-за плохо убранного снега. В Санкт-Петербурге задержали некоего Мансура Абдылхасиева. Он на своей заниженной ласточке колесил по городу, в районе Московских ворот достал из окна автомат и выпустил очередь в воздух. Кража века в Дрездене, в знаменитой сокровищнице «Зеленый свод» — аж на миллиард евро.
На аукцион выставлены драгоценности и личные вещи Людмилы Зыкиной. Самый дорогой лот, который по стоимости перекрывает все остальное — знаменитые серьги с бриллиантами и сапфирами. Почему родственники великой певицы все никак не могут между собой договориться?
Скандальное ДТП. Юлия Дмитриева 3 года находилась в статусе подозреваемой по уголовному делу. Потому что была за рулем, когда погибла ее 5-летняя дочь Майя. По одной из версий, непосредственными виновниками ДТП были сотрудники ГИБДД, которые преследовали квадроцикл Юли с ребенком в качестве пассажира в Можайском районе. Ударили служебным автомобилем заднее колесо квадроцикла — вот мама с дочкой и улетели в кювет. По другой — не все так однозначно и прямолинейно. Специальное расследование.
Интернет — ты зло! Как «дать по рукам» аферистам и закрыть фейковую страницу в интернете? Спойлер: это очень непросто. Шоумен и телеведущий Максим Галкин, актриса и телеведущая Екатерина Стриженова, актер Андрей Чернышов. Список знаменитостей, чьим именем прикрываются мошенники, растет день ото дня. Вот и звезды Первого канала — Андреева, Шарафутдинов, Пиманов, Малышева, Якубович попали в переплет.
Релиз от:
[Profile] [PM]
Display posts:    
Reply to topic

Current time is: 14-Dec 12:07

All times are UTC + 3



You cannot post new topics in this forum
You cannot reply to topics in this forum
You cannot edit your posts in this forum
You cannot delete your posts in this forum
You cannot vote in polls in this forum
You cannot attach files in this forum
You cannot download files in this forum