Тест на беременность [2 сезон: 1-16 серии из 16] (2019) HDTVRip 720p от GeneralFilm

Reply to topic
 
Author Message

olegka7373 ®

Gender: Male

Longevity: 1 year 1 month

Posts: 248

Location: Россия, Новокузнецк

Post 02-Dec-2019 20:49

[Quote]

Тест на беременность-2
Год выпуска: 2019
Жанр: Мелодрама, медицина
Выпущено: Россия, Всемирные Русские Студии
Режиссер: Клим Шипенко, Олег Асадулин, Антон Сиверс
В ролях: Светлана Иванова, Кирилл Гребенщиков, Данила Дунаев, Лянка Грыу, Анна Каменкова, Александр Яцко, Анна Пескова, Маргарита Адаева, Татьяна Рассказова, Александр Нестеров (III), Сергей Мигицко, Артур Ваха, Стелла Ильницкая, Кирилл Варакса, Серафима Огарёва, Агния Кузнецова, Александр Строев, Владимир Кошевой, Андрей Ургант, Юлия Галкина, Ола Кейру, Олег Лебедев-Бовольский
О фильме: Наташа Бахметьева живет с Андреем и годовалым, болезненным сыном Мишкой, пробуя себя в непривычной роли домохозяйки и матери. Она приезжает в Медцентр поздравить «Мишу» с юбилеем и видит, как у ворот роддома КАМАЗ сбивает беременную женщину. Бахметьева спасает пациентку, но не ребенка, на сутки вынужденно зависает на работе и узнает, что в отделении за несколько дней умерло семь новорожденных. Информация о младенческом море просачивается в прессу, и в Центр приезжает комиссия, в состав которой входит когда-то уволенная Наташей Инга Елизарова. С ее подачи главврача Саморядова отстраняют, а на его место назначают Колмогорова, который приехал в Питер за Наташей и сыном. Экс-любовник уговаривает Бахметьеву вернуться на работу – ради спасения Медцентра, который с подачи Колмогорова могут закрыть, и это вбивает клин между Наташей и Андреем. Напряженность в их отношениях усиливается еще больше, когда в отделении появляются их «бывшие» Руслан и Ольшанская, переживающие бурный роман. А происходящее между ними вдруг начинает вызывать у Наташи весьма неоднозначные чувства. Плюс ко всему – в Андрея влюбляется протеже Колмогорова, интерн Женя Митрич, которую за острый ум, недюжинные знания и смелость в обсервации тут же нарекают Бахметьевой 2.0.

Качество: HDTVRip (720p)
Видео: MPEG-4 AVC, ~ 3500 Кбит/с, 1280x720, 25 fps
Аудио: Русский (AC3, 2 ch, 192 Кбит/с)
Продолжительность: 16 х ~ 00:50:00
Перевод: Не требуется
Субтитры: нет

Скриншоты


MediaInfo

Общее
Уникальный идентификатор : 250683540420290043105978997516019931285 (0xBC97E4C9EB5930C89C54D583D93F9895)
Полное имя : D:Test na beremennost-2.HDTVRip.(720p).GeneralFilm1.Test na beremennost-2.HDTVRip.(720p).GeneralFilm.mkv
Формат : Matroska
Версия формата : Version 2
Размер файла : 1,26 Гбайт
Продолжительность : 48 м.
Общий поток : 3693 Кбит/сек
Дата кодирования : UTC 2019-12-02 17:36:47
Программа кодирования : mkvmerge v7.8.0 ('River Man') 32bit built on Apr 3 2015 12:11:22
Библиотека кодирования : libebml v1.3.1 + libmatroska v1.4.2
Видео
Идентификатор : 1
Формат : AVC
Формат/Информация : Advanced Video Codec
Профиль формата : High@L4.1
Параметр CABAC формата : Да
Параметр ReFrames формата : 9 кадров
Идентификатор кодека : V_MPEG4/ISO/AVC
Продолжительность : 48 м.
Битрейт : 3500 Кбит/сек
Ширина : 1280 пикселей
Высота : 720 пикселей
Соотношение сторон : 16:9
Режим частоты кадров : Постоянный
Частота кадров : 25,000 кадров/сек
Цветовое пространство : YUV
Субдискретизация насыщенности : 4:2:0
Битовая глубина : 8 бит
Тип развёртки : Прогрессивная
Бит/(Пиксели*Кадры) : 0.152
Размер потока : 1,17 Гбайт (93%)
Библиотека кодирования : x264 core 146 r2538 121396c
Настройки программы : cabac=1 / ref=9 / deblock=1:-2:-1 / analyse=0x3:0x133 / me=umh / subme=9 / psy=1 / psy_rd=1.00:0.15 / mixed_ref=1 / me_range=32 / chroma_me=1 / trellis=2 / 8x8dct=1 / cqm=0 / deadzone=21,11 / fast_pskip=0 / chroma_qp_offset=-3 / threads=18 / lookahead_threads=3 / sliced_threads=0 / nr=0 / decimate=1 / interlaced=0 / bluray_compat=0 / constrained_intra=0 / bframes=9 / b_pyramid=2 / b_adapt=2 / b_bias=0 / direct=1 / weightb=1 / open_gop=0 / weightp=2 / keyint=250 / keyint_min=25 / scenecut=40 / intra_refresh=0 / rc=2pass / mbtree=0 / bitrate=3500 / ratetol=1.0 / qcomp=0.60 / qpmin=0 / qpmax=69 / qpstep=4 / cplxblur=20.0 / qblur=0.5 / ip_ratio=1.40 / pb_ratio=1.30 / aq=2:1.00
Default : Да
Forced : Нет
Основные цвета : BT.709
Характеристики трансфера : BT.709
Коэффициенты матрицы : BT.709
Аудио
Идентификатор : 2
Формат : AC-3
Формат/Информация : Audio Coding 3
Расширение режима : CM (complete main)
Параметр Endianness формата : Big
Идентификатор кодека : A_AC3
Продолжительность : 48 м.
Вид битрейта : Постоянный
Битрейт : 192 Кбит/сек
Каналы : 2 канала
Расположение каналов : Front: L R
Частота : 48,0 КГц
Битовая глубина : 16 бит
Метод сжатия : С потерями
Размер потока : 67,0 Мбайт (5%)
Default : Да
Forced : Нет

Внимание! Раздача ведётся путём добавления новых серий

Раздача ведётся путём добавления новых серий, при каждом добавлении создаётся новый торрент. Чтобы начать докачку новой серии, пользователям необходимо сделать следующее:
- Остановить скачивание.
- Удалить старый торрент у себя из клиента (старые серии удалять не надо).
- Скачать новый торрент и запустить его у себя в клиенте вместо старого, при этом указать клиенту путь в старую папку куда и должно происходить скачивание новых серий.
Ваш клиент при этом должен произвести хеширование (проверку) старой папки (если не производит сам - помогите ему сделать это), и будет докачивать только те серии которых у вас ещё нет. Старые серии при этом не удаляются, а продолжают раздаваться!
Если вы уже удалили старые серии, то предотвратить повторную закачку старых серий можно, отжав галочку в соответствующих местах при запуске нового торрента. По возможности, желательно не удалять старые серии как можно дольше, чтобы релизер не столько продолжал раздавать старые серии, а смог сконцентрироваться на новых.
Релиз:
[Profile] [PM]
Display posts:    
Reply to topic

Current time is: 14-Dec 12:06

All times are UTC + 3



You cannot post new topics in this forum
You cannot reply to topics in this forum
You cannot edit your posts in this forum
You cannot delete your posts in this forum
You cannot vote in polls in this forum
You cannot attach files in this forum
You cannot download files in this forum