Собачья жизнь 2 / A Dog's Journey (2019) BDRip от Files-x | Лицензия

Reply to topic
 
Author Message

papa1951deda ®

Gender: Male

Longevity: 1 year 3 months

Posts: 482

Location: Казахстан

Post 11-Dec-2019 17:16

[Quote]

Собачья жизнь 2 / A Dog's Journey Год выпуска: 2019
Жанр: Фэнтези, драма, комедия, приключения, семейный
Выпущено: Индия, Гонконг, США, Китай, DreamWorks, Walden Media, Amblin Entertainment
Режиссер: Гейл Манкусо
В ролях: Дэннис Куэйд, Эбби Райдер Фортсон, Бетти Гилпин, Кэтрин Прескотт, Марг Хельгенбергер, Джош Гэд, Джейк Мэнли, Даниэла Барбоза, Йен Чен, Генри Лау, Эмма Фольк, Джонни Галэки
О фильме: Старый пес Бадди прожил несколько жизней, прежде чем воссоединиться со своим первым хозяином. Но на этом цепь его перерождений не оборвалась. Он возвращается в теле щенка, получает кличку Молли и выполняет новую миссию – принести счастье проблемной девочке-подростку СиДжей.
Качество: BDRip
Видео: XviD, ~1921 Кбит/с, 720x304
Аудио: Русский, английский (AC3, 6 ch, 448 Кбит/с)
Продолжительность: 01:48:39
Перевод: Дублированный
Cубтитры: Русские (форс.)

Скриншоты


MediaInfo

eneral
Complete name : H:\разное\A.Dogs.Journey.2019.BDRip. Files-x\A.Dogs.Journey.2019.BDRip.Files-x.avi
Format : AVI
Format/Info : Audio Video Interleave
Format profile : OpenDML
File size : 2.15 GiB
Duration : 1h 48mn
Overall bit rate : 2 836 Kbps
Movie name : C
Writing application : VirtualDubMod 1.5.10.3 | www.virtualdub-fr.org || (build 2550/release)
Writing library : VirtualDubMod build 2550/release
Original source form/Name : S
Video
ID : 0
Format : MPEG-4 Visual
Format profile : Advanced Simple@L5
Format settings, BVOP : 2
Format settings, QPel : No
Format settings, GMC : No warppoints
Format settings, Matrix : Default (MPEG)
Codec ID : XVID
Codec ID/Hint : XviD
Duration : 1h 48mn
Bit rate : 1 921 Kbps
Width : 720 pixels
Height : 304 pixels
Display aspect ratio : 2.35:1
Frame rate : 23.976 fps
Color space : YUV
Chroma subsampling : 4:2:0
Bit depth : 8 bits
Scan type : Progressive
Compression mode : Lossy
Bits/(Pixel*Frame) : 0.366
Stream size : 1.46 GiB (68%)
Writing library : XviD 1.2.1 (UTC 2008-12-04)
Audio #1
ID : 1
Format : AC-3
Format/Info : Audio Coding 3
Mode extension : CM (complete main)
Codec ID : 2000
Duration : 1h 48mn
Bit rate mode : Constant
Bit rate : 448 Kbps
Channel(s) : 6 channels
Channel positions : Front: L C R, Side: L R, LFE
Sampling rate : 48.0 KHz
Bit depth : 16 bits
Compression mode : Lossy
Stream size : 348 MiB (16%)
Alignment : Split accross interleaves
Interleave, duration : 42 ms (1.00 video frame)
Interleave, preload duration : 500 ms
Audio #2
ID : 2
Format : AC-3
Format/Info : Audio Coding 3
Codec ID : 2000
Duration : 1h 48mn
Bit rate mode : Constant
Bit rate : 448 Kbps
Channel(s) : 6 channels
Sampling rate : 48.0 KHz
Compression mode : Lossy
Stream size : 348 MiB (16%)
Alignment : Split accross interleaves
Interleave, duration : 42 ms (1.00 video frame)
Interleave, preload duration : 500 ms
Релиз от:
[Profile] [PM]
Display posts:    
Reply to topic

Current time is: 24-Feb 02:35

All times are UTC + 3



You cannot post new topics in this forum
You cannot reply to topics in this forum
You cannot edit your posts in this forum
You cannot delete your posts in this forum
You cannot vote in polls in this forum
You cannot attach files in this forum
You cannot download files in this forum