Discovery: Человек против медведя / Man vs Bear [1 сезон:1-8 серии из 8] (2019-2020) HDTVRip 720p от GeneralFilm

Reply to topic
 
Author Message

Abakan2000 ®

Gender: Male

Longevity: 1 year 10 months

Posts: 16

Post 12-Jan-2020 16:38

[Quote]

Человек против медведя / Man vs Bear
Год выпуска: 2020
Жанр: Реалити-шоу
Выпущено: США, Discovery Channel
Режиссер: Тони Гонзалес
В ролях: Кэйси Андерсон, Брэндон Тирни, Крисси Шевчук
О фильме: В дикой природе единственное животное, которое превосходит человека в статусе высшего хищника, — медведь. В Юте, на территории гризли (заповедник «Медвежья гора») человек бросает вызов мощному и хищному зверю в соревнованиях, которые еще никто и никогда не устраивал. Лучшие спортсмены Америки сразятся с огромным медведем гризли в силе, скорости, манёвренности и выносливости. Кто выиграет эту битву за господство на суше и докажет свое превосходство?

Качество: HDTVRip 720p
Видео: MPEG-4 AVC, ~ 4000 Кбит/с, 1280x720, 25 кадр/с
Аудио: MP2, 2 ch, 192 Кбит/с
Продолжительность: 8 x ~ 00:44:00
Перевод / Озвучка: Профессиональный [одноголосый]
Субтитры: нет

Скриншоты


MediaInfo

General
Unique ID : 232683301055896835146636019198420525127 (0xAF0D2C7803254B96CD482A568B172047)
Complete name : E:\Документальные\Человек против медведя . S01 720p GeneralFilm\01. Человек против медведя.mkv
Format : Matroska
Format version : Version 2
File size : 1.30 GiB
Duration : 44 min 17 s
Overall bit rate mode : Constant
Overall bit rate : 4 198 kb/s
Writing application : Lavf54.63.104
Writing library : Lavf54.63.104
Video
ID : 1
Format : AVC
Format/Info : Advanced Video Codec
Format profile : High@L4.1
Format settings : CABAC / 3 Ref Frames
Format settings, CABAC : Yes
Format settings, Reference : 3 frames
Codec ID : V_MPEG4/ISO/AVC
Duration : 44 min 17 s
Bit rate mode : Constant
Bit rate : 4 000 kb/s
Width : 1 280 pixels
Height : 720 pixels
Display aspect ratio : 16:9
Frame rate mode : Constant
Frame rate : 50.000 FPS
Standard : PAL
Color space : YUV
Chroma subsampling : 4:2:0
Bit depth : 8 bits
Scan type : Progressive
Bits/(Pixel*Frame) : 0.087
Stream size : 1.21 GiB (93%)
Default : No
Forced : No
Color range : Limited
Color primaries : BT.709
Transfer characteristics : BT.709
Matrix coefficients : BT.709
Audio
ID : 2
Format : MPEG Audio
Format version : Version 1
Format profile : Layer 2
Codec ID : A_MPEG/L2
Codec ID/Hint : MP2
Duration : 44 min 17 s
Bit rate mode : Constant
Bit rate : 192 kb/s
Channel(s) : 2 channels
Sampling rate : 48.0 kHz
Compression mode : Lossy
Delay relative to video : 16 ms
Stream size : 60.8 MiB (5%)
Language : English
Default : Yes
Forced : No

Внимание! Раздача ведётся путём добавления новых серий!

Внимание! Раздача ведётся путём добавления новых серий; при каждом добавлении создfётся новый торрент. Чтобы начать докачку новой серии, пользователям необходимо сделать следующее: (1) остановить скачивание, (2) удалить старый торрент у себя из клиента (старые серии удалять не надо), (3) скачать новый торрент и запустить его у себя в клиенте вместо старого, при этом указать клиенту путь в старую папку куда и должно происходить скачивание новых серий.
Ваш клиент при этом должен произвести хеширование (проверку) старой папки (если не производит сам - помогите ему сделать это), и будет докачивать только те серии которых у вас ещё нет. Старые серии при этом не удаляются, а продолжают раздаваться!
Eсли вы уже удалили старые серии, то предотвратить повторную закачку старых серий можно, отжав галочку в соответсвующих местах при запуске нового торрента.
Релиз от:


Last edited by Abakan2000 on 2020-03-01 19:10; edited 6 times in total
[Profile] [PM]

kirill1891

Gender: Male

Longevity: 11 months 21 day

Posts: 1

Post 21-Jan-2020 20:22 (after 9 days)

[Quote]

а AVI будет ?
[Profile] [PM]

Starik60

Gender: Male

Longevity: 1 year 10 months

Posts: 279

Location: Москва, Россия

Post 26-Jan-2020 20:07 (after 4 days)

[Quote]

16662а AVI будет ?
Нет.
[Profile] [PM]
Display posts:    
Reply to topic

Current time is: 21-Sep 18:43

All times are UTC + 3



You cannot post new topics in this forum
You cannot reply to topics in this forum
You cannot edit your posts in this forum
You cannot delete your posts in this forum
You cannot vote in polls in this forum
You cannot attach files in this forum
You cannot download files in this forum