Тайны госпожи Кирсановой [1-50 серии из 50] (2018) HDTV 1080p от R.G.Generalfilm

Ответить на тему
 
Автор Сообщение

White Smoke ®

Пол: Мужской

Стаж: 4 месяца 12 дней

Сообщений: 53

Создавать темы 05-Дек-2018 03:11

[Цитировать]

Тайны госпожи Кирсановой Год выпуска: 2018
Жанр: Детектив
Выпущено: Россия Boomerang Film Company
Режиссер: Сергей Мезенцев, Виталий Бордачев
В ролях: Ольга Лерман, Антон Батырев, Евгений Шириков, Ольга Плешкова, Евгения Симонова, Иван Шабалтас, Николай Денисов, Максим Битюков, Юрий Шлыков, Сергей Савлук, Елена Радевич, Александра Никифорова
О фильме: 1878 год. В небольшой уездный город Богородск приезжает молодая учительница математики Лариса Дмитриевна Кирсанова. Госпожу Кирсанову привело сюда желание разыскать своего жениха – молодого дворянина Павла Бестужева, который таинственно исчез за день до венчания, не попрощавшись и не оставив даже письма. Павел родом из Богородска, в котором из родных осталась только старушка мать. Здесь же проживает и любимая тетка Ларисы – Лизавета Прокофьевна. Тем временем, после окончания русско-турецкой войны с Балкан возвращаются участники боевых сражений. Город ликует, встречая героев! Приехав в провинцию, Лариса Дмитриевна даже не догадывается о том, что её ожидает совсем другая жизнь, в которой в полной мере раскроются ее удивительные способности, ум и характер. Отныне ее жизнь наполнена загадками, риском и раскрытием громких преступлений!.
Качество: HDTV 1080p Запись с телеканала РОССИЯ HD
Видео: AVC, 1920x1080 (16:9), 25.000 fps, 7 051 Kbps (0.136 bit/pixel)
Аудио: AC3 / 2.0 / 48 kHz / 192 kbps
Продолжительность: ~00:50:00
Перевод: Не требуется
Cубтитры: нет

Скриншоты





MediaInfo

General
Unique ID : 176218087389814346056314147789133921849 (0x84925E7EF44D97AC8DDD1CBDAA6D3E39)
Complete name : E:\Запись с тв\Doktor Rixter S02.2018.HDTV 1080p.RG GeneralFilm\Doktor Rixter.s02.e03.2018.HDTV 1080p.by.White Smoke.R.G.Generalfilm.mkv
Format : Matroska
Format version : Version 4 / Version 2
File size : 2.56 GiB
Duration : 50 min
Overall bit rate mode : Constant
Overall bit rate : 7 220 kb/s
Movie name : Doktor Rixter.s02.e03.2018.HDTV 1080p.by.White Smoke.R.G.Generalfilm.mkv
Encoded date : UTC 2018-11-21 19:57:03
Writing application : mkvmerge v6.8.0 ('Theme for Great Cities') 64bit built on Mar 2 2014 21:34:26
Writing library : libebml v1.3.0 + libmatroska v1.4.1
Cover : Yes
Attachments : cover.jpg
Video
ID : 1
Format : AVC
Format/Info : Advanced Video Codec
Format profile : High@L4.1
Format settings, CABAC : Yes
Format settings, ReFrames : 3 frames
Codec ID : V_MPEG4/ISO/AVC
Duration : 50 min
Bit rate mode : Constant
Bit rate : 7 051 kb/s
Width : 1 920 pixels
Height : 1 080 pixels
Display aspect ratio : 16:9
Frame rate mode : Constant
Frame rate : 25.000 FPS
Standard : PAL
Color space : YUV
Chroma subsampling : 4:2:0
Bit depth : 8 bits
Scan type : Progressive
Bits/(Pixel*Frame) : 0.136
Stream size : 2.44 GiB (95%)
Default : Yes
Forced : No
Color range : Limited
Color primaries : BT.709
Transfer characteristics : BT.709
Matrix coefficients : BT.709
Audio
ID : 2
Format : AC-3
Format/Info : Audio Coding 3
Mode extension : CM (complete main)
Format settings, Endianness : Big
Codec ID : A_AC3
Duration : 50 min
Bit rate mode : Constant
Bit rate : 192 kb/s
Channel(s) : 2 channels
Channel positions : Front: L R
Sampling rate : 48.0 kHz
Frame rate : 31.250 FPS (1536 spf)
Compression mode : Lossy
Stream size : 69.8 MiB (3%)
Default : Yes
Forced : No

Раздача ведётся путём добавления новых серий

Внимание! Раздача ведётся путём добавления новых серий; при каждом добавлении создаётся новый торрент.
Чтобы начать докачку новой серии, пользователям необходимо сделать следующее:
1. Остановить скачивание;
2. Удалить старый торрент у себя из клиента (старые серии удалять не надо);
3. Скачать новый торрент и запустить его у себя в клиенте вместо старого, при этом указать клиенту путь в старую папку куда и должно происходить скачивание новых серий. Ваш клиент при этом должен произвести хеширование (проверку) старой папки и будет докачивать только те серии, которых у вас ещё нет. Старые серии при этом не удаляются, а продолжают раздаваться! Eсли вы уже удалили старые серии, то предотвратить повторную закачку старых серий можно, отжав галочку в соответствующих местах при запуске нового торрента.


Последний раз редактировалось: White Smoke (2019-01-20 17:31), всего редактировалось 13 раз(а)
[Профиль] [ЛС]

runetzone

Пол: Мужской

Стаж: 2 месяца 19 дней

Сообщений: 63

Откуда: Санкт-Петербург

Создавать темы 09-Янв-2019 12:35 (спустя 1 месяц 4 дня)

[Цитировать]

Спасибо за раздачу!!! ay
[Профиль] [ЛС]

Мерве

Стаж: 3 месяца 17 дней

Сообщений: 1

Создавать темы 20-Янв-2019 09:32 (спустя 10 дней)

[Цитировать]

Когда ждать продолжение раздачи?
Извините если надоела))
[Профиль] [ЛС]

White Smoke ®

Пол: Мужской

Стаж: 4 месяца 12 дней

Сообщений: 53

Создавать темы 20-Янв-2019 17:33 (спустя 8 часов)

[Цитировать]

Мерве, извините пожалуйста проблемы были с источником трансляции
[Профиль] [ЛС]
Показать сообщения:    
Ответить на тему

Текущее время: 26-Мар 04:18

Часовой пояс: UTC + 3



Вы не можете начинать темы
Вы не можете отвечать на сообщения
Вы не можете редактировать свои сообщения
Вы не можете удалять свои сообщения
Вы не можете голосовать в опросах
Вы не можете прикреплять файлы к сообщениям
Вы не можете скачивать файлы