Discovery. Тикл / Tickle [1-12 серии из 12] (2013) HDTVRip 720p от GeneralFilm

Reply to topic
 
Author Message

Abakan2000 ®

Gender: Male

Longevity: 1 year 3 months

Posts: 16

Post 09-Feb-2020 20:29

[Quote]

Тикл / Tickle
Год выпуска: 2013
Жанр: Документальный
Выпущено: США, Magilla Entertainment
В ролях: Стив Тикл, Мэтью Пабо, Дэн Тейлор
О фильме: Изготовление самогона-это американская семейная традиция, в которой отличительные рецепты и приемы передаются из поколения в поколение. Каждый рецепт отличается и может действовать как отпечаток пальца, чтобы определить, кто создал самогон, люди в Аппалачах не любят, чтобы их самогон заимствовался на постоянной основе. Теперь, когда у Тикла есть новая заначка самогона, ему нужен способ реализовать ее, не попасться. Он обращается за помощью к своим самым доверенным друзьям, Говарду и МОУ, поскольку находит новые способы замести следы и переместить свою недавно приобретенную партию самогона. Начав с витрины магазина, предназначенной для отвлечения внимания незаконного бизнеса по распространению его недавно приобретенного самогона, Тикл должна оставаться осторожным, чтобы уклониться от властей, шпионящих горожан и, самое главное, истинных владельцев, которые могут или не могут иметь серьезные криминальные связи. Поскольку Тикл пускается в серию безумных планов и возмутительных приключений, он просто может узнать, что, когда дело доходит до самогона, украсть его легко, а вот реализовать не так то просто.

Официальный сайт
Качество: HDTV
Видео: MPEG-4 AVC, ~ 4000 Кбит/с, 1280x720, 50 кадр/с
Аудио: Русский (MP2, 2 ch, 192 Кбит/с)
Продолжительность: 12 x ~ 00:22:00
Перевод / Озвучка: Профессиональный [одноголосый]
Субтитры: нет

Скриншоты


MediaInfo

General
Unique ID : 266343786725246291792823489940201802219 (0xC85FF28B231A30471BBE368AFD1609EB)
Complete name : E:\Документальные\Тикл S01 720p GeneralFilm\01 Tickle by Abakan2000 GeneralFilm.mkv
Format : Matroska
Format version : Version 2
File size : 655 MiB
Duration : 21 min 49 s
Overall bit rate mode : Constant
Overall bit rate : 4 199 kb/s
Writing application : Lavf54.63.104
Writing library : Lavf54.63.104
Video
ID : 1
Format : AVC
Format/Info : Advanced Video Codec
Format profile : High@L4.1
Format settings : CABAC / 3 Ref Frames
Format settings, CABAC : Yes
Format settings, Reference : 3 frames
Codec ID : V_MPEG4/ISO/AVC
Duration : 21 min 49 s
Bit rate mode : Constant
Bit rate : 4 000 kb/s
Width : 1 280 pixels
Height : 720 pixels
Display aspect ratio : 16:9
Frame rate mode : Constant
Frame rate : 50.000 FPS
Standard : PAL
Color space : YUV
Chroma subsampling : 4:2:0
Bit depth : 8 bits
Scan type : Progressive
Bits/(Pixel*Frame) : 0.087
Stream size : 612 MiB (93%)
Default : No
Forced : No
Color range : Limited
Color primaries : BT.709
Transfer characteristics : BT.709
Matrix coefficients : BT.709
Audio
ID : 2
Format : MPEG Audio
Format version : Version 1
Format profile : Layer 2
Codec ID : A_MPEG/L2
Codec ID/Hint : MP2
Duration : 21 min 49 s
Bit rate mode : Constant
Bit rate : 192 kb/s
Channel(s) : 2 channels
Sampling rate : 48.0 kHz
Compression mode : Lossy
Delay relative to video : 20 ms
Stream size : 30.0 MiB (5%)
Language : English
Default : Yes
Forced : No

Название серий

01. Богатство из перегонного куба.
02. Как припрятать выпивку?
03. Машины, арбалеты и кукурузный спирт.
04. Духи в спирте.
05. На рыбалке.
06. Барыши от виски.
07. Сварено, упаковано и доставлено.
08. История под парами.
09. Со скоростью молнии.
10. Дом с выпивкой.
11. Раздавим по пузырю.
12. Мертвецкая пьянь.

Внимание! Раздача ведётся путём добавления новых серий!

Внимание! Раздача ведётся путём добавления новых серий; при каждом добавлении создfётся новый торрент. Чтобы начать докачку новой серии, пользователям необходимо сделать следующее: (1) остановить скачивание, (2) удалить старый торрент у себя из клиента (старые серии удалять не надо), (3) скачать новый торрент и запустить его у себя в клиенте вместо старого, при этом указать клиенту путь в старую папку куда и должно происходить скачивание новых серий.
Ваш клиент при этом должен произвести хеширование (проверку) старой папки (если не производит сам - помогите ему сделать это), и будет докачивать только те серии которых у вас ещё нет. Старые серии при этом не удаляются, а продолжают раздаваться!
Eсли вы уже удалили старые серии, то предотвратить повторную закачку старых серий можно, отжав галочку в соответсвующих местах при запуске нового торрента.
Релиз от:
[Profile] [PM]
Display posts:    
Reply to topic

Current time is: 24-Feb 02:16

All times are UTC + 3



You cannot post new topics in this forum
You cannot reply to topics in this forum
You cannot edit your posts in this forum
You cannot delete your posts in this forum
You cannot vote in polls in this forum
You cannot attach files in this forum
You cannot download files in this forum