Золотая лихорадка: Заброшенный прииск Дэйва Турина / Gold Rush: Dave Turin's Lost Mine [2 сезон: 1-4 серии] (2020) HDTVRip 720p от Starik60

Reply to topic
 
Author Message

Starik60 ®

Gender: Male

Longevity: 1 year 8 months

Posts: 240

Location: Москва, Россия

Post 26-Apr-2020 11:03

[Quote]

Золотая лихорадка: Заброшенный прииск Дэйва Турина / Gold Rush: Dave Turin's Lost Mine
Год выпуска: 2020
Жанр: Документальный, природа, география, путешествия, приключения, исследование
Выпущено: США, Raw Television, Discovery Channel
Режиссер: Кристофер Голдинг
В ролях: Дэйв Турин, Джейсон Санчес, Крис Тейлор
О фильме: Опытный старатель Дэйв Турин — настоящий эксперт в деле золотоискательства. Работая вместе с Тоддом Хоффманом и намывая тонны породы за сезон, он заработал прозвище «Бульдозер». Но затем Дэйв ушел из команды Тодда, и два года о нем ничего не было слышно. Теперь же Дэйв Турин возвращается в золотой бизнес. Благодаря богатому профессиональному опыту и поддержке инвесторов он может помочь семьям, которые стремятся возродить свои заброшенные прииски. Дэйв разъезжает по Америке, чтобы наладить золотодобычу на убыточных или покинутых участках в надежде найти богатое месторождение и сорвать банк. На его пути будут встречаться самые разные люди, но всех их объединяет одно: они готовы рисковать, чтобы озолотиться.

Официальный сайт
Качество: HDTVRip 720p
Видео: MPEG-4 AVC, ~ 4000 Кбит/с, 1280x720
Аудио: MP2, 2 ch, 384 Кбит/с
Продолжительность: 4 х ~ 00:44:00
Перевод: Дублированный

Скриншоты




MediaInfo


General
Unique ID : 186450189590118338966427765212654699801 (0x8C4500156B463B4A9929D46784258519)
Complete name : G:\Раздачи 2\Прииск Дэйва Турина S02 HDTVRip 720p by Starik60\01 Прииск Дэйва Турина by Starik60.mkv
Format : Matroska
Format version : Version 4 / Version 2
File size : 1.35 GiB
Duration : 44 min 12 s
Overall bit rate mode : Constant
Overall bit rate : 4 382 kb/s
Encoded date : UTC 2020-04-23 21:42:12
Writing application : mkvmerge v7.8.0 ('River Man') 64bit built on Mar 27 2015 16:31:37
Writing library : libebml v1.3.1 + libmatroska v1.4.2 / Lavf54.63.104
Cover : Yes
Attachments : cover.jpg
Video
ID : 1
Format : AVC
Format/Info : Advanced Video Codec
Format profile : High@L4.1
Format settings : CABAC / 3 Ref Frames
Format settings, CABAC : Yes
Format settings, ReFrames : 3 frames
Codec ID : V_MPEG4/ISO/AVC
Duration : 44 min 12 s
Bit rate mode : Constant
Bit rate : 4 000 kb/s
Width : 1 280 pixels
Height : 720 pixels
Display aspect ratio : 16:9
Frame rate mode : Constant
Frame rate : 50.000 FPS
Standard : PAL
Color space : YUV
Chroma subsampling : 4:2:0
Bit depth : 8 bits
Scan type : Progressive
Bits/(Pixel*Frame) : 0.087
Stream size : 1.23 GiB (91%)
Default : No
Forced : No
Color range : Limited
Color primaries : BT.709
Transfer characteristics : BT.709
Matrix coefficients : BT.709
Audio
ID : 2
Format : MPEG Audio
Format version : Version 1
Format profile : Layer 2
Codec ID : A_MPEG/L2
Codec ID/Hint : MP2
Duration : 44 min 11 s
Bit rate mode : Constant
Bit rate : 384 kb/s
Channel(s) : 2 channels
Sampling rate : 48.0 kHz
Frame rate : 41.667 FPS (1152 SPF)
Compression mode : Lossy
Delay relative to video : 24 ms
Stream size : 121 MiB (9%)
Language : English
Default : Yes
Forced : No

Внимание! Раздача ведётся путём добавления новых серий!

Внимание! Раздача ведётся путём добавления новых серий; при каждом добавлении создfётся новый торрент. Чтобы начать докачку новой серии, пользователям необходимо сделать следующее: (1) остановить скачивание, (2) удалить старый торрент у себя из клиента (старые серии удалять не надо), (3) скачать новый торрент и запустить его у себя в клиенте вместо старого, при этом указать клиенту путь в старую папку куда и должно происходить скачивание новых серий.
Ваш клиент при этом должен произвести хеширование (проверку) старой папки (если не производит сам - помогите ему сделать это), и будет докачивать только те серии которых у вас ещё нет. Старые серии при этом не удаляются, а продолжают раздаваться!
Eсли вы уже удалили старые серии, то предотвратить повторную закачку старых серий можно, отжав галочку в соответсвующих местах при запуске нового торрента.
Благодарю за отличный постер ValkiriaGF
Релиз от:
[Profile] [PM]
Display posts:    
Reply to topic

Current time is: 04-Aug 14:51

All times are UTC + 3



You cannot post new topics in this forum
You cannot reply to topics in this forum
You cannot edit your posts in this forum
You cannot delete your posts in this forum
You cannot vote in polls in this forum
You cannot attach files in this forum
You cannot download files in this forum