Огонек-Огниво (2020) WEB-DLRip от GeneralFilm

Reply to topic
 
Author Message

vsobbol ®

Gender: Male

Longevity: 1 year 8 months

Posts: 638

Location: Донецк

Post 07-Jul-2020 06:34

[Quote]

Огонек-Огниво
Год выпуска: 2020
Жанр: Мультфильм
Выпущено: Россия, "VVERH" Film company
Режиссер: Константин Щекин
В ролях: Наталья Терешкова, Эдгард Запашный, Пётр Коврижных, Ирина Яковлева, Сергей Бурунов, Юрий Аскаров, Александр Олешко, Алексей Елистратов, Никита Прозоровский, Олег Есенин
О фильме: История начинается с доброго, но бедного Гончара, который однажды находит Огниво — магический артефакт, делающий его владельца богатым, но взамен насылающий смертельное проклятье. Спасти Гончара может только самоотверженность главной героини — девушка по имени Огонёк. Она, не раздумывая, бросается на выручку друга, помогая ему понять, что любовь и честный труд важнее денег и власти.

Качество: WEB-DLRip
Видео: XviD build 73, 688x384 (16:9), 25.000 fps, 1047 Kbps (0.159 bit/pixel)
Аудио: 48.0 kHz, MP3, 2/0 ch, 128 kbps
Продолжительность: 01:28:04
Перевод: Не требуется [Русский]
Cубтитры: нет

Скриншоты

MediaInfo

General
Complete name : D:\Razdachi\Ogonek-Ognivo.2020.WEB-DLRip.GeneralFilm.avi
Format : AVI
Format/Info : Audio Video Interleave
File size : 746 MiB
Duration : 1 h 28 min
Overall bit rate : 1 185 kb/s
Writing application : VirtualDubMod 1.5.10.3 | www.virtualdub-fr.org || (build 2550/release)
Writing library : VirtualDubMod build 2550/release
Video
ID : 0
Format : MPEG-4 Visual
Format profile : Advanced Simple@L5
Format settings : BVOP1 / Custom Matrix
Format settings, BVOP : 1
Format settings, QPel : No
Format settings, GMC : No warppoints
Format settings, Matrix : Custom
Codec ID : XVID
Codec ID/Hint : XviD
Duration : 1 h 28 min
Bit rate : 1 047 kb/s
Width : 688 pixels
Height : 384 pixels
Display aspect ratio : 16:9
Frame rate : 25.000 FPS
Color space : YUV
Chroma subsampling : 4:2:0
Bit depth : 8 bits
Scan type : Progressive
Compression mode : Lossy
Bits/(Pixel*Frame) : 0.159
Stream size : 660 MiB (88%)
Writing library : XviD 73
Audio
ID : 1
Format : MPEG Audio
Format version : Version 1
Format profile : Layer 3
Codec ID : 55
Codec ID/Hint : MP3
Duration : 1 h 28 min
Bit rate mode : Constant
Bit rate : 128 kb/s
Channel(s) : 2 channels
Sampling rate : 48.0 kHz
Frame rate : 41.667 FPS (1152 SPF)
Compression mode : Lossy
Stream size : 80.6 MiB (11%)
Alignment : Aligned on interleaves
Interleave, duration : 40 ms (1.00 video frame)
Interleave, preload duratio : 504 ms
Writing library : LAME3.99r
Encoding settings : -m s -V 4 -q 2 -lowpass 17 -b 128
Релиз от:
[Profile] [PM]
Display posts:    
Reply to topic

Current time is: 04-Aug 13:36

All times are UTC + 3



You cannot post new topics in this forum
You cannot reply to topics in this forum
You cannot edit your posts in this forum
You cannot delete your posts in this forum
You cannot vote in polls in this forum
You cannot attach files in this forum
You cannot download files in this forum