Отель Эдельвейс (2019) WEB-DL 1080p | iTunes

Reply to topic
 
Author Message

Monk ®

Gender: Male

Longevity: 1 year 8 months

Posts: 12456

Location: Казань

Post 13-Jul-2020 13:23

[Quote]

Отель Эдельвейс Год выпуска: 2019
Жанр: Комедия
Выпущено: Украина, Content Film Group
Режиссер: Юрий Рудый
В ролях: Сергей Комаровский, Василий Вирастюк, Анна Кузина, Артемий Егоров, Истан Розумный, Екатерина Рубашкина, Лев Сомов, Наталия Васько, Алексей Колесник, Максим Панькив
О фильме: Молодой и задорный авантюрный Алекс больше всего стремится разбогатеть. Он узнает о месторождении золота далеко в Карпатских горах. Есть только одна проблема – именно на месте месторождения стоит старинное поместье, в котором размещается отель. Продавать свой отель владелец наотрез отказывается. Поэтому остается только один путь – влюбить в себя его дочь Ирит и жениться на ней. Но и здесь не все гладко – Ирит помолвлена и вот-вот должна состояться свадьба.
Качество: WEB-DL 1080p
Видео: MPEG-4 AVC, 4587 Кбит/с, 1920x794
Аудио: Русский (AC3, 6 ch, 384 Кбит/с)
Продолжительность: 01:27:12
Перевод: Не требуется [iTunes]

Скриншоты


MediaInfo

Complete name : Otel.Edelveys.2019.WEB-DL.1080p.ELEKTRI4KA.UNIONGANG.mkv
Format : Matroska
Format version : Version 4 / Version 2
File size : 3.03 GiB
Duration : 1 h 27 min
Overall bit rate : 4 973 kb/s
Movie name : .ELEKTRI4KA.UNIONGANG.
Encoded date : UTC 2020-07-12 18:50:36
Writing application : mkvmerge v8.3.0 ('Over the Horizon') 64bit
Writing library : libebml v1.3.1 + libmatroska v1.4.2
Video
ID : 1
Format : AVC
Format/Info : Advanced Video Codec
Format profile : High@L4
Format settings, CABAC : Yes
Format settings, Reference frames : 5 frames
Codec ID : V_MPEG4/ISO/AVC
Duration : 1 h 27 min
Bit rate : 4 587 kb/s
Width : 1 920 pixels
Height : 794 pixels
Display aspect ratio : 2.40:1
Frame rate mode : Constant
Frame rate : 24.000 FPS
Color space : YUV
Chroma subsampling : 4:2:0
Bit depth : 8 bits
Scan type : Progressive
Bits/(Pixel*Frame) : 0.125
Stream size : 2.79 GiB (92%)
Language : English
Default : Yes
Forced : No
Color range : Limited
Color primaries : BT.709
Transfer characteristics : BT.709
Matrix coefficients : BT.709
Audio
ID : 2
Format : AC-3
Format/Info : Audio Coding 3
Mode extension : CM (complete main)
Format settings, Endianness : Big
Codec ID : A_AC3
Duration : 1 h 27 min
Bit rate mode : Constant
Bit rate : 384 kb/s
Channel(s) : 6 channels
Channel positions : Front: L C R, Side: L R, LFE
Sampling rate : 48.0 kHz
Frame rate : 31.250 FPS (1536 spf)
Bit depth : 16 bits
Compression mode : Lossy
Stream size : 240 MiB (8%)
Title : iTunes
Language : Russian
Default : Yes
Forced : No
Menu
00:00:00.000 : en:Глава 1
00:07:32.500 : en:Глава 2
00:13:56.375 : en:Глава 3
00:20:23.750 : en:Глава 4
00:27:44.166 : en:Глава 5
00:35:10.041 : en:Глава 6
00:42:16.291 : en:Глава 7
00:48:37.916 : en:Глава 8
00:55:02.582 : en:Глава 9
01:02:36.123 : en:Глава 10
01:10:24.289 : en:Глава 11
01:17:07.164 : en:Глава 12
[Profile] [PM]
Display posts:    
Reply to topic

Current time is: 04-Aug 13:56

All times are UTC + 3



You cannot post new topics in this forum
You cannot reply to topics in this forum
You cannot edit your posts in this forum
You cannot delete your posts in this forum
You cannot vote in polls in this forum
You cannot attach files in this forum
You cannot download files in this forum