Торжественный парад ко Дню Военно-морского флота РФ. Санкт-Петербург (2020) HDTVRip от GeneralFilm

Reply to topic
 
Author Message

olegka7373 ®

Gender: Male

Longevity: 2 years

Posts: 385

Location: Россия, Новокузнецк

Post 26-Jul-2020 13:34

[Quote]

Торжественный парад ко Дню Военно-морского флота РФ
Оригинальное название: Торжественный парад к Дню Военно-морского флота РФ
Год выпуска: 2020
Жанр: Документальный, военный парад
Выпущено: Россия, 1 (HD)
О фильме: В военно-морском параде в Санкт-Петербурге 26 июля 2020 года будет задействовано 46 боевых кораблей и подводных лодок всех флотов, в том числе, самые современные из поступающих сегодня на вооружение. Среди них — первый серийный фрегат «Адмирал флота Касатонов», морской тральщик «Александр Обухов», подводная лодка «Санкт-Петербург» и другие. По Неве пройдут боевые катера со знаменами прославленных соединений ВМФ, а на десантных катерах будут размещены легендарные машины Победы — танк Т-34 и БМ-13 «Катюша». Вместе с боевыми кораблями по Неве пройдут два новейших гидрографических судна. В воздушной части парада будет задействовано более 40 единиц авиационной техники.
Качество: HDTVRip
Видео: XviD, 1799 Кбит/с, 720x400, 25 кадр/с
Аудио: Русский (AC3, 2 ch, 192 Кбит/с)
Продолжительность: 01:13:37
Перевод: Не требуется
Субтитры: нет

Скриншоты


MediaInfo

Общее
Полное имя : D:Torzhestvennyj parad k Dnju Voenno-morskogo flota RF.(Sankt-Peterburg).(2020).HDTVRip.GeneralFilm.avi
Формат : AVI
Формат/Информация : Audio Video Interleave
Размер файла : 1,03 Гбайт
Продолжительность : 1 ч. 13 м.
Общий поток : 2000 Кбит/сек
Программа кодирования : VirtualDubMod 1.5.10.3 | www.virtualdub-fr.org || (build 2550/release)
Библиотека кодирования : VirtualDubMod build 2550/release
Видео
Идентификатор : 0
Формат : MPEG-4 Visual
Профиль формата : Advanced Simple@L5
Параметр BVOP формата : 1
Параметр QPel формата : Нет
Параметр GMC формата : Без точки перехода
Параметр матрицы формата : Выборочная
Идентификатор кодека : XVID
Идентификатор кодека/Подсказка : XviD
Продолжительность : 1 ч. 13 м.
Битрейт : 1799 Кбит/сек
Ширина : 720 пикселей
Высота : 400 пикселей
Соотношение сторон : 16:9
Частота кадров : 25,000 кадров/сек
Цветовое пространство : YUV
Субдискретизация насыщенности : 4:2:0
Битовая глубина : 8 бит
Тип развёртки : Прогрессивная
Метод сжатия : С потерями
Бит/(Пиксели*Кадры) : 0.250
Размер потока : 947 Мбайт (90%)
Библиотека кодирования : XviD 1.2.1 (UTC 2008-12-04)
Аудио
Идентификатор : 1
Формат : AC-3
Формат/Информация : Audio Coding 3
Расширение режима : CM (complete main)
Параметр Endianness формата : Big
Идентификатор кодека : 2000
Продолжительность : 1 ч. 13 м.
Вид битрейта : Постоянный
Битрейт : 192 Кбит/сек
Каналы : 2 канала
Расположение каналов : Front: L R
Частота : 48,0 КГц
Битовая глубина : 16 бит
Метод сжатия : С потерями
Размер потока : 101 Мбайт (10%)
Выравнивание : Разделение по промежуткам
Продолжительность промежутка : 40 мс. (1,00 видеокадр)
Время предзагрузки промежутка : 500 мс.
Релиз:
[Profile] [PM]
Display posts:    
Reply to topic

Current time is: 26-Nov 04:07

All times are UTC + 3



You cannot post new topics in this forum
You cannot reply to topics in this forum
You cannot edit your posts in this forum
You cannot delete your posts in this forum
You cannot vote in polls in this forum
You cannot attach files in this forum
You cannot download files in this forum