Мост [2 сезон: 1-10 серии из 10] (2018) WEB-DL 720p

Reply to topic
 
Author Message

Nicodem ®

Gender: Male

Longevity: 2 years

Posts: 668

Post 26-Jul-2020 16:28

[Quote]

Мост
Год выпуска: 2018
Жанр: Детектив, триллер, драма, криминал
Выпущено: Россия, ВайТ Медиа по заказу телеканала НТВ
Режиссер: Максим Василенко
В ролях: Ингеборга Дапкунайте, Михаил Пореченков, Вадим Сквирский, Александр Марушев, Алексей Митин, Алексей Красноцветов, Денис Старков, Татьяна Рябоконь, Гуйдо Кангур, Александр Куйкка, Анна Табанина, Григорий Зельцер, Андрей Финягин, Полина Толстун, Аграфена Петровская, Никита Плащевский, Алёна Савастова, Михаил Разумовский, Владимир Селезнёв (II), Сергей Волков (III), Андрей Лопатенков, Дмитрий Сутырин, Елена Мартыненко, Дмитрий Луговкин, Виктория Малекторович, Кристина Кузьмина, Самвел Мужикян, Полина Дудкина, Никита Волков, София Никифорова, Анастасия Тюнина, Наталья Иохвидова, Алиса Миронова, Сергей Маркеев, Глеб Темнов, Василий Гузов, Олег Фёдоров (III), Валентина Иккерт, Людмила Никольская, Валерий Кувакин, Алексей Фролов (II), Никита Чеканов
О фильме: Российская версия популярного шведско-датского детективного сериала "Мост". После событий первого сезона проходит год. Вcе пpecтyплeния проuсxoдят в Сaнкт-Петеpбурге. Площaдкой, нa которой случается новoe преступление, становиться Вантовый мост через Петровский канал, расположенный между Васильевским островом и Комендантским проспектом. Телевидение Санкт-Петербурга рассказывает о новом преступлении: на прогулочном катере обнаружена странная композиция - три манекена и женский труп. В убитой опознают Марту Андерсаа, сотрудницу консульства Эстонии в Петербурге. Поскольку убита гражданка Эстонии, создаётся совместная следственно-оперативная группа, которую возглавляют Инга Веермаа и Максим Казанцев. Им предстоит схватка с загадочным серийным убийцей, неуловимым и непредсказуемым Инсталлятором, чьи композиции убийств похожи на картины, представленные в художественной галерее известного миллионера…

Качество: WEB-DL 720p
Видео: MPEG-4 AVC, ~ 3500 Кбит/с, 1280x546, 25 кадр/с
Аудио: AC3, 2 ch, 192 Кбит/с
Продолжительность: 10 х 00:50:00
Перевод: Не требуется
Субтитры: нет

Скриншоты


MediaInfo

General
Unique ID : 203216035887742513218455445363668795446 (0x98E1FC2069CCE83EA7BDA49413DBC036)
Complete name : C:Most.S02.E01.2018.WEB-DL.(720p).ExKinoRay.mkv
Format : Matroska
File size : 1.20 GiB
Duration : 46mn 19s
Overall bit rate : 3 694 Kbps
Encoded date : UTC 2020-05-22 10:18:08
Writing application : mkvmerge v6.9.1 ('Blue Panther') 64bit built on Apr 18 2014 18:23:38
Writing library : libebml v1.3.0 + libmatroska v1.4.1
Video
ID : 1
Format : AVC
Format/Info : Advanced Video Codec
Format profile : High@L4.1
Format settings, CABAC : Yes
Format settings, ReFrames : 9 frames
Codec ID : V_MPEG4/ISO/AVC
Duration : 46mn 19s
Bit rate : 3 429 Kbps
Width : 1 280 pixels
Height : 546 pixels
Display aspect ratio : 2.35:1
Frame rate : 25.000 fps
Color space : YUV
Chroma subsampling : 4:2:0
Bit depth : 8 bits
Scan type : Progressive
Bits/(Pixel*Frame) : 0.196
Stream size : 1.11 GiB (93%)
Color primaries : BT.709-5, BT.1361, IEC 61966-2-4, SMPTE RP177
Transfer characteristics : BT.709-5, BT.1361
Matrix coefficients : BT.709-5, BT.1361, IEC 61966-2-4 709, SMPTE RP177
Audio
ID : 2
Format : AC-3
Format/Info : Audio Coding 3
Mode extension : CM (complete main)
Codec ID : A_AC3
Duration : 46mn 19s
Bit rate mode : Constant
Bit rate : 192 Kbps
Channel(s) : 2 channels
Channel positions : Front: L R
Sampling rate : 48.0 KHz
Bit depth : 16 bits
Compression mode : Lossy
Stream size : 63.6 MiB (5%)
Language : Russian

Раздача ведётся путём добавления новых серий

Внимание! Раздача ведётся путём добавления новых серий; при каждом добавлении создаётся новый торрент.
Чтобы начать докачку новой серии, пользователям необходимо сделать следующее:
1. Остановить скачивание;
2. Удалить старый торрент у себя из клиента (старые серии удалять не надо);
3. Скачать новый торрент и запустить его у себя в клиенте вместо старого, при этом указать клиенту путь в старую папку куда и должно происходить скачивание новых серий. Ваш клиент при этом должен произвести хеширование (проверку) старой папки и будет докачивать только те серии, которых у вас ещё нет. Старые серии при этом не удаляются, а продолжают раздаваться! Eсли вы уже удалили старые серии, то предотвратить повторную закачку старых серий можно, отжав галочку в соответствующих местах при запуске нового торрента.
[Profile] [PM]
Display posts:    
Reply to topic

Current time is: 26-Nov 04:24

All times are UTC + 3



You cannot post new topics in this forum
You cannot reply to topics in this forum
You cannot edit your posts in this forum
You cannot delete your posts in this forum
You cannot vote in polls in this forum
You cannot attach files in this forum
You cannot download files in this forum