Кокоша — маленький дракон: Приключения в джунглях / Der kleine Drache Kokosnuss - Auf in den Dschungel! / Coconut the Little Dragon 2: Into th (2019) WEB-DLRip от GeneralFilm | IVI

Reply to topic
 
Author Message

vsobbol ®

Gender: Male

Longevity: 1 year 8 months

Posts: 638

Location: Донецк

Post 26-Jul-2020 23:40

[Quote]

Кокоша — маленький дракон: Приключения в джунглях / Der kleine Drache Kokosnuss - Auf in den Dschungel! / Coconut the Little Dragon 2: Into the Jungle
Год выпуска: 2019
Жанр: Мультфильм, фэнтези, комедия, приключения, семейный
Выпущено: Германия, Caligari Film- und Fernsehproduktions GmbH
Режиссер: Энтони Пауэр
В ролях: Макс фон дер Грёбен, Каролин Кебекус, Дастин Земмельрогге, Гудо Хегель, Ангелика Бендер
О фильме: Дракончики Кокоша и Оскар едут в летний лагерь. Они пытаются тайно взять собой подругу Матильду – дикобразиху, которой туда нельзя. Вместе героев ждут самые веселые и опасные каникулы в их жизни. Кокоша и Оскар – неразлучные друзья, которые не похожи на своих сородичей: один совсем не умеет летать, а другой не ест мясо. Родители отправляют их в специальный лагерь для драконов, чтобы дети как следует отдохнули. Однако ребята не хотят никуда ехать без дикобразихи Матильды, с которой близко дружат. Они разрабатывают тайную спецоперацию по доставке подруги: прячут ее в ящик и загружают на борт корабля. У них получается, и теперь троица готова к приключениям! Герои приплывают на экзотический остров, где их ждет множество опасностей. Первое препятствие – племя водяных драконов, которые не очень рады гостям и не пускают их на территорию. Вторая сложность – прожорливые растения, готовые съесть любого, кто к ним приблизится. Только дружба и взаимопонимание помогут дракончикам и дикобразихе пережить эти безумные каникулы.

Качество: WEB-DLRip
Видео: XviD build 73, 720x400 (16:9), 25.000 fps, 1160 Kbps (0.161 bit/pixel)
Аудио: 48.0 kHz, MP3, 2/0 ch, 192 kbps
Продолжительность: 01:16:29
Перевод: Дублированное | IVI
Примечание: Без рекламы! Цифровая лицензия IVI
Cубтитры: нет

Скриншоты

MediaInfo

General
Complete name : D:\Razdachi\Kokosha.2019.WEB-DLRip.GeneralFilm.avi
Format : AVI
Format/Info : Audio Video Interleave
File size : 745 MiB
Duration : 1 h 16 min
Overall bit rate : 1 361 kb/s
Writing application : VirtualDubMod 1.5.10.3 | www.virtualdub-fr.org || (build 2550/release)
Writing library : VirtualDubMod build 2550/release
Video
ID : 0
Format : MPEG-4 Visual
Format profile : Advanced Simple@L5
Format settings : BVOP1 / Custom Matrix
Format settings, BVOP : 1
Format settings, QPel : No
Format settings, GMC : No warppoints
Format settings, Matrix : Custom
Codec ID : XVID
Codec ID/Hint : XviD
Duration : 1 h 16 min
Bit rate : 1 160 kb/s
Width : 720 pixels
Height : 400 pixels
Display aspect ratio : 16:9
Frame rate : 25.000 FPS
Color space : YUV
Chroma subsampling : 4:2:0
Bit depth : 8 bits
Scan type : Progressive
Compression mode : Lossy
Bits/(Pixel*Frame) : 0.161
Stream size : 634 MiB (85%)
Writing library : XviD 73
Audio
ID : 1
Format : MPEG Audio
Format version : Version 1
Format profile : Layer 3
Codec ID : 55
Codec ID/Hint : MP3
Duration : 1 h 16 min
Bit rate mode : Constant
Bit rate : 192 kb/s
Channel(s) : 2 channels
Sampling rate : 48.0 kHz
Frame rate : 41.667 FPS (1152 SPF)
Compression mode : Lossy
Stream size : 105 MiB (14%)
Alignment : Aligned on interleaves
Interleave, duration : 40 ms (1.00 video frame)
Interleave, preload duratio : 504 ms
Writing library : LAME3.99r
Encoding settings : -m s -V 4 -q 2 -lowpass 18.6 -b 192
Релиз от:
[Profile] [PM]
Display posts:    
Reply to topic

Current time is: 04-Aug 13:32

All times are UTC + 3



You cannot post new topics in this forum
You cannot reply to topics in this forum
You cannot edit your posts in this forum
You cannot delete your posts in this forum
You cannot vote in polls in this forum
You cannot attach files in this forum
You cannot download files in this forum