Верность (2019) BDRip-AVC от Files-x | GER Transfer | Лицензия

Reply to topic
 
Author Message

Серый1779 ®

Gender: Male

Longevity: 1 year 8 months

Posts: 1092

Location: Украина

Post 27-Jul-2020 12:08

[Quote]

Верность
Год выпуска: 2019
Жанр: Драма
Выпущено: Россия, PREMIER Studios, Droog Drooga Films при поддержке Министерства культуры РФ
Режиссер: Нигина Сайфуллаева
В ролях: Александр Паль, Евгения Громова, Алексей Агранович, Марина Васильева (II), Анна Котова-Дерябина, Павел Ворожцов, Елизавета Лотова, Анастасия Денисова, Кирилл Каганович
О фильме: Лена — талантливый акушер-гинеколог, её муж Сережа — артист провинциального драмтеатра. Близость и нежность у них есть, секса — нет. Лена подозревает, что Сережа завёл роман на стороне, но она мучается молча и не выдаёт свою ревность. Вместо того чтобы выяснить отношения с мужем, Лена сама начинает изменять ему со случайными мужчинами. Она, конечно, не думала, что её параллельная жизнь окажется не менее подлинной, чем основная. И не менее реальной. И настолько опасной.
Версия 18+! Присутствуют сцены сексуального характера.

Качество: BDRip-AVC
Видео: MPEG-4 AVC, ~ 2110 Кбит/с, 1024x432, 24 кадр/с
Аудио: 48 kHz, AC3 Dolby Digital, 3/2 (L, C, R, l, r) + LFE ch, ~448 kbps
Продолжительность: 01:21:46
Перевод: Не требуется | Лицензия Blu-ray GER
Субтитры: Русские

Скриншоты



MediaInfo

General
Unique ID : 112607728534771608206031178837544090656 (0x54B775AAAB4D6EB4670E341211CB3C20)
Complete name : F:\Vernost.(2019).GER.BDRip.(AVC).by.Серый1779.Files-x.mkv
Format : Matroska
Format version : Version 4 / Version 2
File size : 1.46 GiB
Duration : 1 h 21 min
Overall bit rate : 2 556 kb/s
Movie name : Верность (2019)
Encoded date : UTC 2020-07-27 08:02:34
Writing application : mkvmerge v32.0.0 ('Astral Progressions') 64-bit
Writing library : libebml v1.3.7 + libmatroska v1.5.0
Cover : Yes
Attachments : cover.jpg
Video
ID : 2
Format : AVC
Format/Info : Advanced Video Codec
Format profile : High@L4.1
Format settings : CABAC / 10 Ref Frames
Format settings, CABAC : Yes
Format settings, RefFrames : 10 frames
Codec ID : V_MPEG4/ISO/AVC
Duration : 1 h 21 min
Bit rate : 2 110 kb/s
Width : 1 024 pixels
Height : 432 pixels
Display aspect ratio : 2.40:1
Frame rate mode : Constant
Frame rate : 24.000 FPS
Color space : YUV
Chroma subsampling : 4:2:0
Bit depth : 8 bits
Scan type : Progressive
Bits/(Pixel*Frame) : 0.199
Stream size : 1.20 GiB (82%)
Writing library : x264 core 146 r2538 121396c
Encoding settings : cabac=1 / ref=10 / deblock=1:-2:-1 / analyse=0x3:0x133 / me=umh / subme=11 / psy=1 / psy_rd=1.00:0.08 / mixed_ref=1 / me_range=32 / chroma_me=1 / trellis=2 / 8x8dct=1 / cqm=0 / deadzone=21,11 / fast_pskip=0 / chroma_qp_offset=-3 / threads=18 / lookahead_threads=3 / sliced_threads=0 / nr=0 / decimate=1 / interlaced=0 / bluray_compat=0 / constrained_intra=0 / bframes=11 / b_pyramid=2 / b_adapt=2 / b_bias=0 / direct=3 / weightb=1 / open_gop=0 / weightp=2 / keyint=250 / keyint_min=23 / scenecut=40 / intra_refresh=0 / rc=2pass / mbtree=0 / bitrate=2110 / ratetol=1.0 / qcomp=0.60 / qpmin=0 / qpmax=69 / qpstep=4 / cplxblur=20.0 / qblur=0.5 / ip_ratio=1.40 / pb_ratio=1.30 / aq=2:1.00
Language : English
Default : Yes
Forced : No
Color range : Limited
Color primaries : BT.709
Transfer characteristics : BT.709
Matrix coefficients : BT.709
Audio
ID : 1
Format : AC-3
Format/Info : Audio Coding 3
Format settings, Endianness : Big
Codec ID : A_AC3
Duration : 1 h 21 min
Bit rate mode : Constant
Bit rate : 448 kb/s
Channel(s) : 6 channels
Channel positions : Front: L C R, Side: L R, LFE
Sampling rate : 48.0 kHz
Frame rate : 31.250 FPS (1536 SPF)
Bit depth : 16 bits
Compression mode : Lossy
Stream size : 262 MiB (18%)
Title : Blu-ray GER
Language : Russian
Service kind : Complete Main
Default : Yes
Forced : No
Релиз от:

Release was prepared by RG Files-x

[Profile] [PM]
Display posts:    
Reply to topic

Current time is: 04-Aug 15:05

All times are UTC + 3



You cannot post new topics in this forum
You cannot reply to topics in this forum
You cannot edit your posts in this forum
You cannot delete your posts in this forum
You cannot vote in polls in this forum
You cannot attach files in this forum
You cannot download files in this forum