Ласточка [1-16 серии из 16] (2018) WEBRip от GeneralFilm

Reply to topic
 
Author Message

vsobbol ®

Gender: Male

Longevity: 1 year 8 months

Posts: 638

Location: Донецк

Post 28-Jul-2020 18:50

[Quote]

Ласточка
Год выпуска: 2018
Жанр: Детектив
Выпущено: Россия, «Всемирные русские студии», «Русские золотые серии»
Режиссер: Денис Карро
В ролях: Екатерина Редникова, Илья Носков, Ольга Фадеева, Елена Цыплакова, Михаил Химичев, Александр Дуденков, Пётр Баранчеев, Наталья Рыжих, Данил Акутин, Дарья Ленда, Наталья Рычкова, Софья Озерова, Константин Белошапка, Виктор Кондрашов, Николай Ковбас, Наталья Земцова, Анастасия Добрынина, Елена Кибалова
О фильме: Отсидев в тюрьме за убийство подруги, которого не совершала, потеряв в тюрьме ребенка и лишившись матери, она возвращается в родной поселок, чтобы найти настоящего убийцу и отомстить… Нет больше Ласточки – юной и наивной Аси Волковой (Екатерина Редникова), невинно осужденной 15 лет назад. Годы колонии превратили ее в Алину Воронову – холодную, одержимую местью женщину. Теперь у нее есть деньги, связи и моральное право уничтожить всех, кто сломал ей жизнь. Алина готова калечить жизни и рушить судьбы своих врагов! Ведь ее предали самые близкие люди – те, кого она любила и кого считала друзьями… Алина начинает собственное расследование. Ей помогают подруга Зара Савина (Ольга Фадеева) и журналист Павел Самохин (Илья Носков). Вскоре они приходят к поразительным выводам, которые меняют все. С каждым новым шагом план отмщения рассыпается, пробуждаются забытые чувства, а жажда расплаты остывает. Но жестокое колесо мести уже запущено и его жернова перемалывают всех – виновных, невиновных и… ее саму…

Качество: WEBRip
Видео: XviD build 73, 720x400 (16:9), 25.000 fps, ~ 1300 Kbps (~ 0.180 bit/pixel)
Аудио: 48.0 kHz, MP3, 2/0 ch, 192 kbps
Продолжительность: 16 x ~ 00:52:00
Перевод: Не требуется [Русский]
Cубтитры: нет
Примечание: Без рекламы и всплывающих надписей

Скриншоты

MediaInfo

General
Complete name : D:\Razdachi\Lastochka.2018.WEBRip.GeneralFilm\E16.Lastochka.avi
Format : AVI
Format/Info : Audio Video Interleave
File size : 558 MiB
Duration : 50 min 59 s
Overall bit rate : 1 529 kb/s
Writing application : VirtualDubMod 1.5.10.3 | www.virtualdub-fr.org || (build 2550/release)
Writing library : VirtualDubMod build 2550/release
Video
ID : 0
Format : MPEG-4 Visual
Format profile : Advanced Simple@L5
Format settings : BVOP1 / Custom Matrix
Format settings, BVOP : 1
Format settings, QPel : No
Format settings, GMC : No warppoints
Format settings, Matrix : Custom
Codec ID : XVID
Codec ID/Hint : XviD
Duration : 50 min 59 s
Bit rate : 1 328 kb/s
Width : 720 pixels
Height : 400 pixels
Display aspect ratio : 16:9
Frame rate : 25.000 FPS
Color space : YUV
Chroma subsampling : 4:2:0
Bit depth : 8 bits
Scan type : Progressive
Compression mode : Lossy
Bits/(Pixel*Frame) : 0.184
Stream size : 484 MiB (87%)
Writing library : XviD 73
Audio
ID : 1
Format : MPEG Audio
Format version : Version 1
Format profile : Layer 3
Codec ID : 55
Codec ID/Hint : MP3
Duration : 50 min 59 s
Bit rate mode : Constant
Bit rate : 192 kb/s
Channel(s) : 2 channels
Sampling rate : 48.0 kHz
Frame rate : 41.667 FPS (1152 SPF)
Compression mode : Lossy
Stream size : 70.0 MiB (13%)
Alignment : Aligned on interleaves
Interleave, duration : 40 ms (1.00 video frame)
Interleave, preload duratio : 504 ms
Writing library : LAME3.99r
Encoding settings : -m s -V 4 -q 2 -lowpass 18.6 -b 192
Релиз от:
[Profile] [PM]
Display posts:    
Reply to topic

Current time is: 04-Aug 14:32

All times are UTC + 3



You cannot post new topics in this forum
You cannot reply to topics in this forum
You cannot edit your posts in this forum
You cannot delete your posts in this forum
You cannot vote in polls in this forum
You cannot attach files in this forum
You cannot download files in this forum