Тёмное наследие / Inheritance (2020) BDRip-AVC [Dub] от R.G.Generalfilm | iTunes

Reply to topic
 
Author Message

HardwareMining ®

Gender: Male

Longevity: 9 months 19 days

Posts: 25

Post 31-Jul-2020 20:44

[Quote]

Тёмное наследие / InheritanceПравду нельзя запереть на замок Год выпуска: 2020
Жанр: триллер, драма, детектив
Выпущено: США
Режиссер: Вон Стайн
В ролях: Лили Коллинз (Lauren Monroe), Саймон Пегг (Morgan Warner), Конни Нильсен (Catherine Monroe), Чейс Кроуфорд (William Monroe), Патрик Варбертон (Archer Monroe), Марке Ричардсон II (Scott Monroe), Майкл Бич (Harold Thewlis), Ребекка Адамс (Jen Monroe), (Young Morgan)[/url], Джош Мюррэй (Young Archer), (Claire Monroe)[/url], Хосе Херрера (Detective Emilio Sanchez)
О фильме: Девушка Лорен из богатой семьи увлечённо делает карьеру окружного прокурора, когда её отец, ещё совсем нестарый мужчина в хорошей форме, внезапно умирает от сердечного приступа. Тут выясняется, что именно ей он оставил странное наследство - ключ от какого-то бункера. Спустившись в страшный подвал, девушка обнаруживает там закованного в цепи заросшего и грязного человека. Похоже, многого о своём любимом папе Лорен не знала.
Мировая премьера: 22 мая 2020 (США)

Качество: BDRip-AVC
Видео: AVC, 1024x428 (2.40:1), 1100 kbps, 23,976 fps, 0,105 bpp
Аудио: русский, AC3, 5.1, 48 kHz, 384 kbps CBR
Продолжительность: 01:51:27
Перевод / Озвучка: Дублированный [iTunes]
Субтитры: нет

Скриншоты

MediaInfo

General
Unique ID : 171205129843355754475049564014365038398 (0x80CCE89B4EAFA6E9B746662922AAD73E)
Complete name : G:\GF\Inheritance.2020.BDRip.AVC.Rip.by.HardwareMining.R.G.Generalfilm.mkv
Format : Matroska
Format version : Version 4 / Version 2
File size : 1.16 GiB
Duration : 1 h 51 min
Overall bit rate : 1 484 kb/s
Movie name : Rip.by.HardwareMining.R.G.Generalfilm
Encoded date : UTC 2020-07-31 17:27:45
Writing application : mkvmerge v6.8.0 ('Theme for Great Cities') 64bit built on Mar 2 2014 21:34:26
Writing library : libebml v1.3.0 + libmatroska v1.4.1
Attachments : MV5BYTYzZjE4NmEtZjQ2NC00NjNjLTlhNTItNjM3YTA3YTQyODk1XkEyXkFqcGdeQXVyMzQwMTY2Nzk@._V1_SY1000_CR0,0,674,1000_AL_.jpg
Video
ID : 1
Format : AVC
Format/Info : Advanced Video Codec
Format profile : High@L4.1
Format settings, CABAC : Yes
Format settings, ReFrames : 10 frames
Codec ID : V_MPEG4/ISO/AVC
Duration : 1 h 51 min
Bit rate : 1 100 kb/s
Width : 1 024 pixels
Height : 428 pixels
Display aspect ratio : 2.40:1
Frame rate mode : Constant
Frame rate : 23.976 (24000/1001) FPS
Color space : YUV
Chroma subsampling : 4:2:0
Bit depth : 8 bits
Scan type : Progressive
Bits/(Pixel*Frame) : 0.105
Stream size : 854 MiB (72%)
Writing library : x264 core 148 r2638 7599210
Encoding settings : cabac=1 / ref=10 / deblock=1:-2:-1 / analyse=0x3:0x113 / me=umh / subme=11 / psy=1 / psy_rd=0.00:0.15 / mixed_ref=1 / me_range=32 / chroma_me=1 / trellis=2 / 8x8dct=1 / cqm=0 / deadzone=21,11 / fast_pskip=0 / chroma_qp_offset=-3 / threads=6 / lookahead_threads=1 / sliced_threads=0 / nr=0 / decimate=0 / interlaced=0 / bluray_compat=0 / constrained_intra=0 / bframes=10 / b_pyramid=2 / b_adapt=2 / b_bias=0 / direct=1 / weightb=1 / open_gop=0 / weightp=2 / keyint=240 / keyint_min=23 / scenecut=40 / intra_refresh=0 / rc_lookahead=40 / rc=2pass / mbtree=0 / bitrate=1100 / ratetol=1.0 / qcomp=0.65 / qpmin=0 / qpmax=69 / qpstep=4 / cplxblur=20.0 / qblur=0.5 / vbv_maxrate=50000 / vbv_bufsize=65500 / nal_hrd=none / filler=0 / ip_ratio=1.40 / pb_ratio=1.30 / aq=1:2.00
Language : English
Default : Yes
Forced : No
Audio
ID : 2
Format : AC-3
Format/Info : Audio Coding 3
Mode extension : CM (complete main)
Format settings, Endianness : Big
Codec ID : A_AC3
Duration : 1 h 51 min
Bit rate mode : Constant
Bit rate : 384 kb/s
Channel(s) : 6 channels
Channel positions : Front: L C R, Side: L R, LFE
Sampling rate : 48.0 kHz
Frame rate : 31.250 FPS (1536 spf)
Compression mode : Lossy
Stream size : 306 MiB (26%)
Title : iTunes
Language : Russian
Default : Yes
Forced : No
Menu
00:00:00.000 : en:Глава 01
00:14:13.102 : en:Глава 02
00:29:59.089 : en:Глава 03
00:42:52.153 : en:Глава 04
00:56:46.236 : en:Глава 05
01:12:59.083 : en:Глава 06
01:27:31.371 : en:Глава 07
01:45:37.998 : en:Глава 08
Релиз от:
[Profile] [PM]
Display posts:    
Reply to topic

Current time is: 04-Aug 14:57

All times are UTC + 3



You cannot post new topics in this forum
You cannot reply to topics in this forum
You cannot edit your posts in this forum
You cannot delete your posts in this forum
You cannot vote in polls in this forum
You cannot attach files in this forum
You cannot download files in this forum