Шахта (2013) WEB-DLRip от GeneralFilm

Reply to topic
 
Author Message

vsobbol ®

Gender: Male

Longevity: 1 year 10 months

Posts: 690

Location: Донецк

Post 14-Sep-2020 00:29

[Quote]

Шахта
Год выпуска: 2013
Жанр: Драма, мелодрама
Выпущено: Россия, «Мосфильм»
Режиссер: Нурбек Эген
В ролях: Никита Осадчий, Виталий Кищенко, Сергей Шнуров, Надежда Маркина, Шэвлин Стэйси, Вэрфилд Морис, Виктория Романенко
О фильме: Подросток Саша живет вместе с сестрой в маленьком шахтерском городке на севере России. Его отец, бывший шахтер, уехал в Америку в надежде сделать там карьеру боксера. А Саня пока учит английский и мечтает о том, чтобы отец забрал его к себе. Но для этого он должен победить на ринге сильного противника. Смогут ли отец и сын когда-нибудь быть вместе?

Качество: WEB-DLRip
Видео: XviD build 73, 720x304 (2.35:1), 25.000 fps, 1106 Kbps (0.202 bit/pixel)
Аудио: 48.0 kHz, MP3, 2/0 ch, 192 kbps
Продолжительность: 01:19:39
Перевод: Не требуется [Русский]
Cубтитры: Русские [на иностранную речь]

Скриншоты

MediaInfo

General
Complete name : D:\Razdachi\Shahta.2013.WEB-DLRip.GeneralFilm.avi
Format : AVI
Format/Info : Audio Video Interleave
File size : 745 MiB
Duration : 1 h 19 min
Overall bit rate : 1 308 kb/s
Writing application : VirtualDubMod 1.5.10.3 | www.virtualdub-fr.org || (build 2550/release)
Writing library : VirtualDubMod build 2550/release
Video
ID : 0
Format : MPEG-4 Visual
Format profile : Advanced Simple@L5
Format settings : BVOP1
Format settings, BVOP : 1
Format settings, QPel : No
Format settings, GMC : No warppoints
Format settings, Matrix : Default (H.263)
Codec ID : XVID
Codec ID/Hint : XviD
Duration : 1 h 19 min
Bit rate : 1 106 kb/s
Width : 720 pixels
Height : 304 pixels
Display aspect ratio : 2.35:1
Frame rate : 25.000 FPS
Color space : YUV
Chroma subsampling : 4:2:0
Bit depth : 8 bits
Scan type : Progressive
Compression mode : Lossy
Bits/(Pixel*Frame) : 0.202
Stream size : 630 MiB (85%)
Writing library : XviD 73
Audio
ID : 1
Format : MPEG Audio
Format version : Version 1
Format profile : Layer 3
Codec ID : 55
Codec ID/Hint : MP3
Duration : 1 h 19 min
Bit rate mode : Constant
Bit rate : 192 kb/s
Channel(s) : 2 channels
Sampling rate : 48.0 kHz
Frame rate : 41.667 FPS (1152 SPF)
Compression mode : Lossy
Stream size : 109 MiB (15%)
Alignment : Aligned on interleaves
Interleave, duration : 40 ms (1.00 video frame)
Interleave, preload duratio : 504 ms
Writing library : LAME3.99r
Encoding settings : -m s -V 4 -q 2 -lowpass 18.6 -b 192
Релиз от:
[Profile] [PM]
Display posts:    
Reply to topic

Current time is: 25-Sep 07:53

All times are UTC + 3



You cannot post new topics in this forum
You cannot reply to topics in this forum
You cannot edit your posts in this forum
You cannot delete your posts in this forum
You cannot vote in polls in this forum
You cannot attach files in this forum
You cannot download files in this forum